Пятьдесят оттенков черного / Fifty Shades of Black (Майкл Тиддес / Michael Tiddes) [2016, США, комедия, WEB-DLRip] Dub (iTunes)

 
Автор Сообщение

TorrentFilm ®

Пол:

Стаж: 2 года

Сообщений: 7741



Награды: Нет

Торрент-статистика

Создавать темы 04-Апр-2016 00:09

[Цитировать]

Пятьдесят оттенков черного / Fifty Shades of Black
Страна: США
Жанр: комедия
Год выпуска: 2016
Продолжительность: 01:28:02
Перевод: Профессиональный (дублированный) iTunes
Cубтитры: нет
Оригинальная аудиодорожка: нет-Режиссер: Майкл Тиддес / Michael Tiddes-В ролях: Марлон Уайанс, Кали Хоук, Фред Уиллард, Майк Эппс, Эффион Крокетт, Джейн Сеймур, Флоренс Хендерсон, Эндрю Бэчелор, Дженни Зигрино, Кейт Лэнг Джонсон-Описание: Неискушенная студентка колледжа знакомится с состоятельным бизнесменом, чьи сексуальные предпочтения омрачают их отношения.-[url=viewtopic.php?t=1460328] [/url]-Качество видео: [url=viewtopic.php?t=5199658]WEB-DLRip[/url]
Формат видео: AVI
Видео: 688x288 (2.39:1), 25 fps, XviD build 65 ~1043 kbps avg, 0.21 bit/pixel
Аудио: 48 kHz, MPEG Layer 3, 2 ch, ~128.00 kbps avg-Скачать сэмпл-

MediaInfo

Format                      : AVI
Format/Info                 : Audio Video Interleave
File size                   : 744 MiB
Duration                    : 1h 28mn
Overall bit rate            : 1 182 Kbps
Writing application         : VirtualDubMod 1.5.10.3 | www.virtualdub-fr.org || (build 2550/release)
Writing library             : VirtualDubMod build 2550/release
Video
ID                          : 0
Format                      : MPEG-4 Visual
Format profile              : Advanced Simple@L5
Format settings, BVOP       : 1
Format settings, QPel       : No
Format settings, GMC        : No warppoints
Format settings, Matrix     : Default (MPEG)
Codec ID                    : XVID
Codec ID/Hint               : XviD
Duration                    : 1h 28mn
Bit rate                    : 1 044 Kbps
Width                       : 688 pixels
Height                      : 288 pixels
Display aspect ratio        : 2.40:1
Frame rate                  : 25.000 fps
Color space                 : YUV
Chroma subsampling          : 4:2:0
Bit depth                   : 8 bits
Scan type                   : Progressive
Compression mode            : Lossy
Bits/(Pixel*Frame)          : 0.211
Stream size                 : 657 MiB (88%)
Writing library             : XviD 65
Audio
ID                          : 1
Format                      : MPEG Audio
Format version              : Version 1
Format profile              : Layer 3
Codec ID                    : 55
Codec ID/Hint               : MP3
Duration                    : 1h 28mn
Bit rate mode               : Constant
Bit rate                    : 128 Kbps
Channel(s)                  : 2 channels
Sampling rate               : 48.0 KHz
Compression mode            : Lossy
Stream size                 : 80.6 MiB (11%)
Alignment                   : Aligned on interleaves
Interleave, duration        : 40 ms (1.00 video frame)
Interleave, preload duratio : 504 ms
Writing library             : LAME3.99r
Encoding settings           : -m s -V 4 -q 2 -lowpass 17 -b 128

Скриншоты

[Профиль] [ЛС]
Кто просматривает тему:

Форум Тема Автор Размер
Фильмы 2014 года Пятьдесят к одному / 50 to 1 (2014) DVDRip | Лицензия достали все 1.46 GB
Фильмы 2014 года Пятьдесят к одному / 50 to 1 (Джим Уилсон) [2014, Драма] WEB-DLRip | iTunes BOSS 2.05 GB
Фильмы 2014 года Пятьдесят к одному / 50 to 1 (ПМ) (Джим Уилсон) [2014 г., драма, WEB-DLRip] достали все 1.46 GB
Фильмы (HD Rips | 720p, 1080p) Пятьдесят оттенков серого / Fifty Shades of Grey (2015) BDRip 720p | Расширенная версия | Лицензия достали все 5.12 GB
Фильмы 2015 года Пятьдесят оттенков серого / Fifty Shades of Grey (2015) WEB-DLRip | iTunes достали все 744 MB
Фильмы (HD Rips | 720p, 1080p) Пятьдесят оттенков серого / Fifty Shades of Grey (2015) WEBRip 1080p | Звук с CAMRip sergej644 2.59 GB
Фильмы 2015 года Пятьдесят оттенков серого / Fifty Shades of Grey (Сэм Тейлор-Джонсон / Sam Taylor-Johnson) [2015, Драма, мелодрама, BDRip-AVC] [Расширенная версия / Unrated] Dub + Original (Eng) + Subs (Rus., Ukr.,... TorrentFilm 2.18 GB
Фильмы 2015 года Пятьдесят оттенков серого / Fifty Shades of Grey (Сэм Тейлор-Джонсон / Sam Taylor-Johnson) [2015, США, Канада, мелодрама, BDRip] [Theatrical cut] Dub (CEE) TorrentFilm 2.18 GB
Показать сообщения:    

Текущее время: Сегодня 07:12

Часовой пояс: GMT



Вы не можете начинать темы
Вы не можете отвечать на сообщения
Вы не можете редактировать свои сообщения
Вы не можете удалять свои сообщения
Вы не можете голосовать в опросах
Вы не можете прикреплять файлы к сообщениям
Вы не можете скачивать файлы