Пятьдесят оттенков черного / Fifty Shades of Black (2016) WEB-DLRip

 
Автор Сообщение

достали все ®

Пол:

Стаж: 1 год 8 месяцев

Сообщений: 6581



Награды: 12 (Подробнее)

Mega Releaser 3 (Количество: 1) Mega Seeder 1 (Количество: 1) Mega Seeder 3 (Количество: 1)
Торрент-статистика

Создавать темы 01-Апр-2016 09:17

[Цитировать]

Информация о фильме
Название: Пятьдесят оттенков черного
Оригинальное название: Fifty Shades of Black
Год выхода: 2016
Жанр: комедия
Режиссер: Майкл Тиддес
В ролях: Марлон Уайанс, Кали Хоук, Фред Уиллард, Майк Эппс, Эффион Крокетт, Джейн Сеймур, Флоренс Хендерсон, Эндрю Бэчелор, Дженни Зигрино, Кейт Лэнг Джонсон
О фильме:
Неискушенная студентка колледжа знакомится с состоятельным бизнесменом, чьи сексуальные предпочтения омрачают их отношения.

Страна: США
Продолжительность: 01:28:02
Перевод: Дублированное [iTunes]
Файл
Кодек: MPEG-4
Качество: WEB-DLRip
Видео: XviD, 688x288, 1046 kbps, 25 fps, 0.211 bpf
Звук: MPEG Audio Layer 3, 128 Kbps, 2 channels, 48000 Hz
Субтитры: нет

Скриншоты

MI

Format : AVI
Format/Info : Audio Video Interleave
File size : 745 MiB
Duration : 1h 28mn
Overall bit rate : 1 184 Kbps
Writing application : VirtualDubMod 1.5.10.3 | www.virtualdub-fr.org || (build 2550/release)
Writing library : VirtualDubMod build 2550/release
Video
ID : 0
Format : MPEG-4 Visual
Format profile : Advanced Simple@L5
Format settings, BVOP : 1
Format settings, QPel : No
Format settings, GMC : No warppoints
Format settings, Matrix : Custom
Codec ID : XVID
Codec ID/Hint : XviD
Duration : 1h 28mn
Bit rate : 1 046 Kbps
Width : 688 pixels
Height : 288 pixels
Display aspect ratio : 2.40:1
Frame rate : 25.000 fps
Color space : YUV
Chroma subsampling : 4:2:0
Bit depth : 8 bits
Scan type : Progressive
Compression mode : Lossy
Bits/(Pixel*Frame) : 0.211
Stream size : 659 MiB (88%)
Writing library : XviD 73
Audio
ID : 1
Format : MPEG Audio
Format version : Version 1
Format profile : Layer 3
Codec ID : 55
Codec ID/Hint : MP3
Duration : 1h 28mn
Bit rate mode : Constant
Bit rate : 128 Kbps
Channel(s) : 2 channels
Sampling rate : 48.0 KHz
Compression mode : Lossy
Stream size : 80.6 MiB (11%)
Alignment : Aligned on interleaves
Interleave, duration : 40 ms (1.00 video frame)
Interleave, preload duratio : 504 ms
Writing library : LAME3.99r
Encoding settings : -m s -V 4 -q 2 -lowpass 17 -b 128
[Профиль] [ЛС]
Кто просматривает тему:

Форум Тема Автор Размер
Фильмы 2014 года Пятьдесят к одному / 50 to 1 (2014) DVDRip | Лицензия достали все 1.46 GB
Фильмы 2014 года Пятьдесят к одному / 50 to 1 (Джим Уилсон) [2014, Драма] WEB-DLRip | iTunes BOSS 2.05 GB
Фильмы 2014 года Пятьдесят к одному / 50 to 1 (ПМ) (Джим Уилсон) [2014 г., драма, WEB-DLRip] достали все 1.46 GB
Фильмы (HD Rips | 720p, 1080p) Пятьдесят оттенков серого / Fifty Shades of Grey (2015) BDRip 720p | Расширенная версия | Лицензия достали все 5.12 GB
Фильмы 2015 года Пятьдесят оттенков серого / Fifty Shades of Grey (2015) WEB-DLRip | iTunes достали все 744 MB
Фильмы (HD Rips | 720p, 1080p) Пятьдесят оттенков серого / Fifty Shades of Grey (2015) WEBRip 1080p | Звук с CAMRip sergej644 2.59 GB
Фильмы 2015 года Пятьдесят оттенков серого / Fifty Shades of Grey (Сэм Тейлор-Джонсон / Sam Taylor-Johnson) [2015, Драма, мелодрама, BDRip-AVC] [Расширенная версия / Unrated] Dub + Original (Eng) + Subs (Rus., Ukr.,... TorrentFilm 2.18 GB
Фильмы 2015 года Пятьдесят оттенков серого / Fifty Shades of Grey (Сэм Тейлор-Джонсон / Sam Taylor-Johnson) [2015, США, Канада, мелодрама, BDRip] [Theatrical cut] Dub (CEE) TorrentFilm 2.18 GB
Показать сообщения:    

Текущее время: Сегодня 18:29

Часовой пояс: GMT



Вы не можете начинать темы
Вы не можете отвечать на сообщения
Вы не можете редактировать свои сообщения
Вы не можете удалять свои сообщения
Вы не можете голосовать в опросах
Вы не можете прикреплять файлы к сообщениям
Вы не можете скачивать файлы