Пятьдесят оттенков серого / Fifty Shades of Grey (Сэм Тейлор-Джонсон / Sam Taylor-Johnson) [2015, США, Канада, мелодрама, BDRip] [Theatrical cut] Dub (CEE)

 
Автор Сообщение

TorrentFilm ®

Пол:

Стаж: 2 года

Сообщений: 7741



Награды: Нет

Торрент-статистика

Создавать темы 02-Июн-2015 00:04

[Цитировать]

Пятьдесят оттенков серого / Fifty Shades of Grey [Theatrical cut]- Год выпуска: 2015
Страна: США, Канада
Жанр: мелодрама
Продолжительность: 02:05:19
Перевод: Профессиональный (полное дублирование) CEE
Субтитры: нет-Режиссер: Сэм Тейлор-Джонсон / Sam Taylor-Johnson
В ролях: Джейми Дорнан, Дакота Джонсон, Люк Граймс, Виктор Расук, Элоиза Мамфорд, Марша Гей Харден, Рита Ора, Макс Мартини, Каллум Кит Ренни, Дженнифер Или
О фильме: Анастейша Стил — скромная студентка, живущая вместе с близкой подругой-сокурсницей Кейт. За неделю до выпускного в университете, Анастейша, по просьбе заболевшей Кейт заменить её, берёт интервью у молодого красавца-миллиардера Кристиана Грея. Интервью складывается не очень удачно, и Анастейша не думает, что они когда-либо встретятся вновь. Неожиданно Грей появляется в хозяйственном магазине, где девушка работает продавцом. Их знакомство продолжается, и Анастейша постепенно узнаёт о тайных сексуальных увлечениях богача...-Релиз:
Автор: kingsize87
Качество: BDRip (источник: / BD-Remux / 1080p)
Формат: AVI
Видео: 720x304 (2.37:1), 23.976 fps, XviD build 66 ~2036 kbps avg, 0.39 bit/pixel
Аудио: 48 kHz, AC3 Dolby Digital, 3/2 (L,C,R,l,r) + LFE ch, ~448.00 kbps avg
Размер: 2232.72 Mb (1/2 DVD-R)
Скачать: Семпл-

Кадры из фильма


-

Mi

Формат : AVI
Формат/Информация : Audio Video Interleave
Профиль формата : OpenDML
Размер файла : 2,18 Гбайт
Продолжительность : 2 ч. 5 м.
Общий поток : 2491 Кбит/сек
Название фильма : Пятьдесят оттенков серого / Fifty Shades of Grey [Theatrical cut] (2015) BDRip
Режиссёр : kingsize87
Программа кодирования : VirtualDubMod 1.5.10.2 (build 2540/release)
Правообладатель : HQCLUB
Примечание : 30.05.2015
Видео
Идентификатор : 0
Формат : MPEG-4 Visual
Профиль формата : Advanced Simple@L5
Параметр BVOP формата : 1
Параметр QPel формата : Нет
Параметр GMC формата : Без точки перехода
Параметр матрицы формата : Выборочная
Идентификатор кодека : XVID
Идентификатор кодека/Подсказка : XviD
Продолжительность : 2 ч. 5 м.
Битрейт : 2031 Кбит/сек
Ширина : 720 пикселей
Высота : 304 пикселя
Соотношение сторон : 2,35:1
Частота кадров : 23,976 кадра/сек
Цветовое пространство : YUV
Субдискретизация насыщенности : 4:2:0
Битовая глубина : 8 бит
Тип развёртки : Прогрессивная
Метод сжатия : С потерями
Бит/(Пиксели*Кадры) : 0.387
Размер потока : 1,78 Гбайт (82%)
Библиотека кодирования : XviD 66
Аудио
Идентификатор : 1
Формат : AC-3
Формат/Информация : Audio Coding 3
Расширение режима : CM (complete main)
Параметр Endianness формата : Big
Идентификатор кодека : 2000
Продолжительность : 2 ч. 5 м.
Вид битрейта : Постоянный
Битрейт : 448 Кбит/сек
Каналы : 6 каналов
Расположение каналов : Front: L C R, Side: L R, LFE
Частота : 48,0 КГц
Битовая глубина : 16 бит
Метод сжатия : С потерями
Размер потока : 401 Мбайт (18%)
Выравнивание : Разделение по промежуткам
Продолжительность промежутка : 42 мс. (1,00 видеокадр)
Время предзагрузки промежутка : 500 мс.
-
[Профиль] [ЛС]
Кто просматривает тему:

Форум Тема Автор Размер
Фильмы 2014 года Пятьдесят к одному / 50 to 1 (2014) DVDRip | Лицензия достали все 1.46 GB
Фильмы 2014 года Пятьдесят к одному / 50 to 1 (Джим Уилсон) [2014, Драма] WEB-DLRip | iTunes BOSS 2.05 GB
Фильмы 2014 года Пятьдесят к одному / 50 to 1 (ПМ) (Джим Уилсон) [2014 г., драма, WEB-DLRip] достали все 1.46 GB
Фильмы (HD Rips | 720p, 1080p) Пятьдесят оттенков серого / Fifty Shades of Grey (2015) BDRip 720p | Расширенная версия | Лицензия достали все 5.12 GB
Фильмы 2015 года Пятьдесят оттенков серого / Fifty Shades of Grey (2015) WEB-DLRip | iTunes достали все 744 MB
Фильмы (HD Rips | 720p, 1080p) Пятьдесят оттенков серого / Fifty Shades of Grey (2015) WEBRip 1080p | Звук с CAMRip sergej644 2.59 GB
Фильмы 2015 года Пятьдесят оттенков серого / Fifty Shades of Grey (Сэм Тейлор-Джонсон / Sam Taylor-Johnson) [2015, Драма, мелодрама, BDRip-AVC] [Расширенная версия / Unrated] Dub + Original (Eng) + Subs (Rus., Ukr.,... TorrentFilm 2.18 GB
Фильмы (DVD 5/9) Пятьдесят оттенков серого / Fifty Shades of Grey (Сэм Тейлор-Джонсон)[2015, Драма, мелодрама, экранизация, DVD9] | Лицензия | Расширенная версия sergej644 6.57 GB
Показать сообщения:    

Текущее время: Сегодня 21:34

Часовой пояс: GMT



Вы не можете начинать темы
Вы не можете отвечать на сообщения
Вы не можете редактировать свои сообщения
Вы не можете удалять свои сообщения
Вы не можете голосовать в опросах
Вы не можете прикреплять файлы к сообщениям
Вы не можете скачивать файлы