Пятый элемент / The Fifth Element (1997) BDRip 1080p от R.G. HD-Films | 60 fps | D

 
Автор Сообщение

sergej644 ®

Пол:

Стаж: 4 года 11 месяцев

Сообщений: 6041

Откуда: Soviet Union



Награды: Нет

Торрент-статистика

Создавать темы 29-Сен-2014 17:46

[Цитировать]

--Пятый элемент / The Fifth Element
-Название: Пятый элемент / The Fifth Element
Оригинальное название: Пятый элемент / The Fifth Element
Год выпуска: 1997
Страна: Франция
Жанр: фантастика, боевик, триллер, комедия
Продолжительность: 02:06:22
Перевод: Дубляж
Субтитры:Русские (Полные), английские (полные)
Вид субтитров Вшитые, отключаемые
Главы Есть-Режиссер: Люк Бессон / Luc Besson-В ролях: Брюс Уиллис (Korben Dallas), Милла Йовович (Leeloo), Гари Олдман (Jean-Baptiste Emanuel Zorg), Иэн Холм (Father Vito Cornelius), Крис Такер (Ruby Rhod), Люк Перри (Billy), Брайон Джеймс (General Munro), Том ’Тайни’ Листер мл. (President Lindberg), Ли Эванс (Fog), Чарли Крид-Майлз (David), Tricky (Right Arm), Джон Невилл (General Staedert)-Описание:
Каждые пять тысяч лет открываются двери между измерениями и темные силы стремятся нарушить существующую гармонию. Каждые пять тысяч лет Вселенной нужен герой, способный противостоять этому злу. XXIII век. Нью-йоркский таксист Корбен Даллас должен решить глобальную задачу - спасение всего рода человеческого.
Зло в виде раскаленной массы, наделенной интеллектом, надвигается на Землю. Победить его можно, только лишь собрав воедино четыре элемента (они же стихии - земля, вода, воздух и огонь) и добавив к ним загадочный пятый элемент.-Рейтинг

imdb.com: 7.60 (273 877)
MPAA: PG-13 - Детям до 13 лет просмотр не желателен-Автор рипа:Tiberiumsun69
-Качество: BDRip 1080p / 60 FPS
Формат: MKV
Видео кодек: AVC
Аудио кодек:AC3, DTS-HD
Видео: AVC, 1920x800, 12427 kbps, 59,997 fps
Аудио №1: русский / AC3 / 5.1 / 48 kHz / 640 kbps / 16 bit |Дубляж Амальгама|
Аудио №2: русский / AC3 / 2.0 / 48 kHz / 192 kbps / 16 bit |Дубляж НТВ|
Аудио №3: русский / AC3 / 2.0 / 48 kHz / 192 kbps / 16 bit |Многоголосый, закадровый НТВ|
Аудио №4: английский / AC3 / 5.1 / 48 kHz / 640 kbps / 16 bit
Аудио №5: русский / DTS-HD / 5.1 / 48 kHz / 1560 kbps / 16 bit|Дубляж Амальгама| - -

Внимание!

Перед скачиванием обязательно проверьте сэмпл на своем оборудовании.

Благодарности

Raven за помощ при создании релиза и обложки

MI

General
Unique ID : 203769279090401107570331809486399132564 (0x994C891F5A0ED79497B23B578C74D394)
Complete name : A:1080p 60fpsПятый элемент 1080p 60fps.mkv
Format : Matroska
Format version : Version 4 / Version 2
File size : 14.1 GiB
Duration : 2h 6mn
Overall bit rate mode : Variable
Overall bit rate : 16.0 Mbps
Encoded date : UTC 2014-09-13 04:39:49
Writing application : mkvmerge v6.9.1 ('Blue Panther') 64bit built on Apr 18 2014 18:23:38
Writing library : libebml v1.3.0 + libmatroska v1.4.1
Video
ID : 1
Format : AVC
Format/Info : Advanced Video Codec
Format profile : High@L4.1
Format settings, CABAC : Yes
Format settings, ReFrames : 4 frames
Codec ID : V_MPEG4/ISO/AVC
Duration : 2h 6mn
Bit rate : 12.4 Mbps
Width : 1 920 pixels
Height : 800 pixels
Display aspect ratio : 2.40:1
Frame rate : 59.997 fps
Color space : YUV
Chroma subsampling : 4:2:0
Bit depth : 8 bits
Scan type : Progressive
Bits/(Pixel*Frame) : 0.135
Stream size : 11.0 GiB (78%)
Writing library : x264 core 133 r2334 a3ac64b
Encoding settings : cabac=1 / ref=4 / deblock=1:-1:-1 / analyse=0x3:0 / me=umh / subme=9 / psy=1 / psy_rd=1.00:0.10 / mixed_ref=1 / me_range=42 / chroma_me=0 / trellis=2 / 8x8dct=1 / cqm=0 / deadzone=21,11 / fast_pskip=0 / chroma_qp_offset=-3 / threads=12 / lookahead_threads=1 / sliced_threads=0 / nr=0 / decimate=0 / interlaced=0 / bluray_compat=0 / constrained_intra=0 / bframes=5 / b_pyramid=2 / b_adapt=2 / b_bias=0 / direct=1 / weightb=1 / open_gop=0 / weightp=2 / keyint=599 / keyint_min=59 / scenecut=40 / intra_refresh=0 / rc=crf / mbtree=0 / crf=16.0 / qcomp=0.60 / qpmin=0 / qpmax=69 / qpstep=4 / ip_ratio=1.40 / pb_ratio=1.30 / aq=0
Language : English
Default : Yes
Forced : No
Audio #1
ID : 2
Format : AC-3
Format/Info : Audio Coding 3
Mode extension : CM (complete main)
Codec ID : A_AC3
Duration : 2h 6mn
Bit rate mode : Constant
Bit rate : 640 Kbps
Channel(s) : 6 channels
Channel positions : Front: L C R, Side: L R, LFE
Sampling rate : 48.0 KHz
Bit depth : 16 bits
Compression mode : Lossy
Stream size : 579 MiB (4%)
Title : Дубляж Амальгама
Language : Russian
Default : Yes
Forced : No
Audio #2
ID : 3
Format : AC-3
Format/Info : Audio Coding 3
Mode extension : CM (complete main)
Codec ID : A_AC3
Duration : 2h 6mn
Bit rate mode : Constant
Bit rate : 192 Kbps
Channel(s) : 2 channels
Channel positions : Front: L R
Sampling rate : 48.0 KHz
Bit depth : 16 bits
Compression mode : Lossy
Stream size : 174 MiB (1%)
Title : Дубляж НТВ
Language : Russian
Default : No
Forced : No
Audio #3
ID : 4
Format : AC-3
Format/Info : Audio Coding 3
Mode extension : CM (complete main)
Codec ID : A_AC3
Duration : 2h 6mn
Bit rate mode : Constant
Bit rate : 192 Kbps
Channel(s) : 2 channels
Channel positions : Front: L R
Sampling rate : 48.0 KHz
Bit depth : 16 bits
Compression mode : Lossy
Stream size : 174 MiB (1%)
Title : Многоголосый, закадровый НТВ
Language : Russian
Default : No
Forced : No
Audio #4
ID : 5
Format : AC-3
Format/Info : Audio Coding 3
Mode extension : CM (complete main)
Codec ID : A_AC3
Duration : 2h 6mn
Bit rate mode : Constant
Bit rate : 640 Kbps
Channel(s) : 6 channels
Channel positions : Front: L C R, Side: L R, LFE
Sampling rate : 48.0 KHz
Bit depth : 16 bits
Compression mode : Lossy
Stream size : 579 MiB (4%)
Title : Оригинал
Language : English
Default : No
Forced : No
Audio #5
ID : 6
Format : DTS
Format/Info : Digital Theater Systems
Format profile : MA / Core
Codec ID : A_DTS
Duration : 2h 6mn
Bit rate mode : Variable
Bit rate : 1 561 Kbps / 1 510 Kbps
Channel(s) : 6 channels
Channel positions : Front: L C R, Side: L R, LFE
Sampling rate : 48.0 KHz
Bit depth : 16 bits
Compression mode : Lossless / Lossy
Title : Дубляж Амальгама
Language : Russian
Default : No
Forced : No
Text #1
ID : 7
Format : UTF-8
Codec ID : S_TEXT/UTF8
Codec ID/Info : UTF-8 Plain Text
Title : Полные
Language : Russian
Default : No
Forced : No
Text #2
ID : 8
Format : UTF-8
Codec ID : S_TEXT/UTF8
Codec ID/Info : UTF-8 Plain Text
Title : Полные
Language : English
Default : No
Forced : No
Menu
00:00:00.000 : :Chapter 01
00:06:51.000 : :Chapter 02
00:16:45.000 : :Chapter 03
00:24:11.625 : :Chapter 04
00:31:12.375 : :Chapter 05
00:39:58.416 : :Chapter 06
00:48:09.458 : :Chapter 07
00:57:53.541 : :Chapter 08
01:07:08.541 : :Chapter 09
01:14:53.291 : :Chapter 10
01:22:31.291 : :Chapter 11
01:27:18.916 : :Chapter 12
01:37:48.666 : :Chapter 13
01:44:17.791 : :Chapter 14
01:52:15.166 : :Chapter 15
02:01:27.832 : :Chapter 16

Скриншоты

[Профиль] [ЛС]
Показать сообщения:    

Текущее время: Сегодня 01:10

Часовой пояс: GMT



Вы не можете начинать темы
Вы не можете отвечать на сообщения
Вы не можете редактировать свои сообщения
Вы не можете удалять свои сообщения
Вы не можете голосовать в опросах
Вы не можете прикреплять файлы к сообщениям
Вы не можете скачивать файлы