Пятое измерение / Push (Пол МакГиган / Paul McGuigan) [2009 г., США, Канада, фантастика, боевик, триллер, BDRip-AVC] Dub + Original Eng + Sub (Rus, Ukr, Eng)

 
Автор Сообщение

TorrentFilm ®

Пол:

Стаж: 2 года

Сообщений: 7741



Награды: Нет

Торрент-статистика

Создавать темы 29-Июл-2015 00:06

[Цитировать]

-Пятое измерение / Push«Одно движение может изменить всё» Страна: США, Канада
Студия: Icon Productions, Infinity Features, Summit Entertainment
Жанр: фантастика, боевик, триллер
Год выпуска: 2009
Продолжительность: 01:51:20-Перевод: Профессиональный (полное дублирование)
Оригинальная аудиодорожка: английская
Cубтитры: русские, украинские, английские
Режиссер: Пол МакГиган / Paul McGuigan
В ролях: Крис Эванс, Дакота Фаннинг, Джимон Хунсу, Камилла Белль, Джоэль Гретш, Роберт Тсонос, Брэндон Перлман, Нил Джексон, Колин Форд, Кай Чунг Люн
Описание: Ник, американский эмигрант, обладает способностью к телекинезу. Он скрывается в Гонконге от могущественной организации, которая хочет эксплуатировать его дар в своих целях. Вскоре молодой человек встречает свою бывшую возлюбленную и знакомится с девочкой Кэсси, способной предсказывать будущее. Она видит, что только вместе они смогут выжить и нарушить планы зловещей корпорации…-
Сэмпл: скачать-Релиз от -
Автор рипа: Elheym
Качество: BDRip-AVC (источник: Grimlen / Blu-ray Disc [PUSH] / 1080p)
Контейнер: MKV
Видео: 1000x426 (2.35:1), 23.976 fps, MPEG-4 AVC, ~4500 kbps avg, 0.440 bit/pixel
Аудио #1: Русский: AC3, 5.1, 48 kHz, ~448 Кбит/с | Профессиональный (полное дублирование) |
Аудио #2: Английский: AC3, 5.1, 48 kHz, ~448 Кбит/с | Оригинал |
Субтитры: русские (полные), украинские (полные), английские (полные)
Главы: Присутствуют, сохранены оригинальные

MediaInfo

Уникальный идентификатор : 222131050918291523473477390078558213823 (0xA71CE25E7B4829B988F26731CF6616BF)
Полное имя : Push.2009.DUAL.BDRip-AVC.x264.AC3.-HQCLUB.mkv
Формат : Matroska
Версия формата : Version 2
Размер файла : 4,19 Гбайт
Продолжительность : 1 ч. 51 м.
Общий поток : 5394 Кбит/сек
Название фильма : Пятое измерение / Push (2009) BDRip-AVC by HQCLUB [Elheym]
Дата кодирования : UTC 2015-07-17 09:59:59
Программа кодирования : mkvmerge v5.2.0 ('I can't explain') built on Dec 18 2011 18:12:03
Библиотека кодирования : libebml v1.2.3 + libmatroska v1.3.0
Attachements : Cover.png
Видео
Идентификатор : 1
Формат : AVC
Формат/Информация : Advanced Video Codec
Профиль формата : High@L4
Параметр CABAC формата : Да
Параметр ReFrames формата : 16 кадров
Идентификатор кодека : V_MPEG4/ISO/AVC
Продолжительность : 1 ч. 51 м.
Битрейт : 4500 Кбит/сек
Ширина : 1000 пикселей
Высота : 426 пикселей
Соотношение сторон : 2,35:1
Режим частоты кадров : Постоянный
Частота кадров : 24,000 кадра/сек
Цветовое пространство : YUV
Субдискретизация насыщенности : 4:2:0
Битовая глубина : 8 бит
Тип развёртки : Прогрессивная
Бит/(Пиксели*Кадры) : 0.440
Размер потока : 3,41 Гбайт (81%)
Заголовок : Пятое измерение / Push (2009) BDRip-AVC by HQCLUB [Elheym]
Библиотека кодирования : x264 core 146 r0+2586 e393126 t_mod_Custom [8-bit@all X86_64]
Настройки программы : cabac=1 / ref=16 / deblock=1:-3:-2 / analyse=0x3:0x113 / me=umh / subme=11 / psy=1 / fade_compensate=0.00 / psy_rd=1.10:0.10 / mixed_ref=1 / me_range=32 / chroma_me=1 / trellis=2 / 8x8dct=1 / cqm=0 / deadzone=21,11 / fast_pskip=0 / chroma_qp_offset=-3 / threads=6 / lookahead_threads=2 / sliced_threads=0 / nr=0 / decimate=0 / interlaced=0 / bluray_compat=0 / constrained_intra=0 / fgo=0 / bframes=16 / b_pyramid=2 / b_adapt=2 / b_bias=0 / direct=3 / weightb=1 / open_gop=0 / weightp=2 / keyint=240 / keyint_min=24 / scenecut=40 / intra_refresh=0 / rc_lookahead=80 / rc=2pass / mbtree=0 / bitrate=4500 / ratetol=1.0 / qcomp=0.80 / qpmin=0:0:0 / qpmax=69:69:69 / qpstep=4 / cplxblur=20.0 / qblur=0.5 / vbv_maxrate=20000 / vbv_bufsize=25000 / nal_hrd=none / filler=0 / ip_ratio=1.30 / pb_ratio=1.20 / aq=2:1.00 / aq-sensitivity=15.00 / aq-factor=1.00:1.00:1.00 / aq2=0 / aq3=0 / zones=153136,160025,b=0.32
Язык : English
Default : Да
Forced : Нет
Аудио #1
Идентификатор : 2
Формат : AC-3
Формат/Информация : Audio Coding 3
Расширение режима : CM (complete main)
Параметр Endianness формата : Big
Идентификатор кодека : A_AC3
Продолжительность : 1 ч. 51 м.
Вид битрейта : Постоянный
Битрейт : 448 Кбит/сек
Каналы : 6 каналов
Расположение каналов : Front: L C R, Side: L R, LFE
Частота : 48,0 КГц
Метод сжатия : С потерями
Размер потока : 357 Мбайт (8%)
Заголовок : АС3 5.1 @ 448 kbps - Dub, Pifagor
Язык : Russian
Default : Нет
Forced : Нет
Аудио #2
Идентификатор : 3
Формат : AC-3
Формат/Информация : Audio Coding 3
Расширение режима : CM (complete main)
Параметр Endianness формата : Big
Идентификатор кодека : A_AC3
Продолжительность : 1 ч. 51 м.
Вид битрейта : Постоянный
Битрейт : 448 Кбит/сек
Каналы : 6 каналов
Расположение каналов : Front: L C R, Side: L R, LFE
Частота : 48,0 КГц
Метод сжатия : С потерями
Размер потока : 357 Мбайт (8%)
Заголовок : АС3 5.1 @ 448 kbps - Original
Язык : English
Default : Нет
Forced : Нет
Текст #1
Идентификатор : 4
Формат : UTF-8
Идентификатор кодека : S_TEXT/UTF8
Идентификатор кодека/Информация : UTF-8 Plain Text
Заголовок : Full
Язык : Russian
Default : Нет
Forced : Нет
Текст #2
Идентификатор : 5
Формат : UTF-8
Идентификатор кодека : S_TEXT/UTF8
Идентификатор кодека/Информация : UTF-8 Plain Text
Заголовок : Full
Язык : Ukrainian
Default : Нет
Forced : Нет
Текст #3
Идентификатор : 6
Формат : UTF-8
Идентификатор кодека : S_TEXT/UTF8
Идентификатор кодека/Информация : UTF-8 Plain Text
Заголовок : Full
Язык : English
Default : Нет
Forced : Нет
Меню
00:00:00.000 : :Chapter 01
00:07:35.625 : :Chapter 02
00:15:15.791 : :Chapter 03
00:21:55.250 : :Chapter 04
00:28:55.666 : :Chapter 05
00:33:54.083 : :Chapter 06
00:40:26.750 : :Chapter 07
00:47:01.416 : :Chapter 08
00:54:11.875 : :Chapter 09
01:03:16.666 : :Chapter 10
01:10:10.375 : :Chapter 11
01:16:42.541 : :Chapter 12
01:23:08.916 : :Chapter 13
01:29:57.958 : :Chapter 14
01:32:23.916 : :Chapter 15
01:36:27.291 : :Chapter 16
01:43:13.416 : :Chapter 17
01:46:26.625 : :Chapter 18
01:51:19.875 : :Chapter 19

x264 log

x264 [info]: frame I:1384 Avg QP:16.62 size: 83666
x264 [info]: frame P:38078 Avg QP:18.85 size: 40178
x264 [info]: frame B:120858 Avg QP:19.98 size: 17439
x264 [info]: consecutive B-frames: 3.6% 4.1% 10.5% 20.2% 12.5% 42.6% 3.6% 0.6% 1.2% 0.3% 0.2% 0.2% 0.1% 0.1% 0.0% 0.0% 0.2%
x264 [info]: ref P L0: 45.5% 11.7% 18.2% 6.0% 4.9% 2.8% 2.6% 1.4% 1.4% 1.0% 1.0% 0.8% 0.8% 0.6% 0.6% 0.5%
x264 [info]: ref B L0: 80.7% 9.2% 3.4% 2.0% 1.2% 0.9% 0.6% 0.5% 0.4% 0.3% 0.2% 0.3% 0.2% 0.1% 0.1%
x264 [info]: ref B L1: 95.6% 4.4%

Скриншоты

Сравнения с исходником

Источник- -Рип-
[Профиль] [ЛС]

Создавать темы 06-Авг-2015 22:23 (спустя 8 дней)

Топик был перенесен из форума Фильмы до 2014 года в форум Фильмы до 2012 года
sergej644
 

Создавать темы 12-Июн-2016 08:49 (спустя 10 месяцев 14 дней)

Топик был перенесен из форума Фильмы 2011 года в форум Фильмы 2009 года
Russian Mafia
 
Показать сообщения:    

Текущее время: Сегодня 13:01

Часовой пояс: GMT



Вы не можете начинать темы
Вы не можете отвечать на сообщения
Вы не можете редактировать свои сообщения
Вы не можете удалять свои сообщения
Вы не можете голосовать в опросах
Вы не можете прикреплять файлы к сообщениям
Вы не можете скачивать файлы