Пятница (Евгений Шелякин) [2016, Россия, комедия, WEB-DL 720p]

 
Автор Сообщение

TorrentFilm ®

Пол:

Стаж: 2 года

Сообщений: 7741



Награды: Нет

Торрент-статистика

Создавать темы 06-Апр-2016 00:09

[Цитировать]

Пятница
Страна: Россия
Жанр: Комедия
Год выпуска: 2016
Продолжительность: 01:26:54
Перевод: Не требуется
Cубтитры: нет
Оригинальная аудиодорожка: русский--Режиссер: Евгений Шелякин--В ролях: Данила Козловский, Настасья Самбурская, Катерина Шпица, Павел Деревянко, Кирилл Плетнёв, Евгения Брик, Антон Шагин, Ян Цапник, Евгений Стычкин, Сергей Бурунов...--Описание: Что если азартный миллионер на одну ночь станет официантом, офисный лузер будет звездой самой яркой вечеринки, а двум «заклятым» друзьям придется искать кенгуру ночью в подмосковном лесу? У каждого своя пятница! Как она закончится для каждого, знает только утро субботы--Доп. информация: | КиноПоиск | Сэмпл |--Тип релиза: WEB-DL 720p
Контейнер: MKV
Видео: AVC, 1280x534 (2.35:1), 24.000 fps, 3 971 Kbps
Аудио: AC3, 3/2 (L,C,R,l,r) + LFE ch, 48 kHz, 384.00 kbps

MediaInfo

General
Unique ID : 186913642181858095794288855375999296539 (0x8C9E420F840ACFD99619C34E096E641B)
Complete name : Пятница (2016).mkv
Format : Matroska
Format version : Version 4 / Version 2
File size : 2.65 GiB
Duration : 1h 26mn
Overall bit rate : 4 357 Kbps
Encoded date : UTC 2016-03-31 19:57:51
Writing application : mkvmerge v8.3.0 ('Over the Horizon') 64bit
Writing library : libebml v1.3.1 + libmatroska v1.4.2
Video
ID : 1
Format : AVC
Format/Info : Advanced Video Codec
Format profile : Main@L3.1
Format settings, CABAC : No
Format settings, ReFrames : 2 frames
Codec ID : V_MPEG4/ISO/AVC
Duration : 1h 26mn
Bit rate : 3 971 Kbps
Width : 1 280 pixels
Height : 534 pixels
Display aspect ratio : 2.40:1
Frame rate mode : Constant
Frame rate : 24.000 fps
Color space : YUV
Chroma subsampling : 4:2:0
Bit depth : 8 bits
Scan type : Progressive
Bits/(Pixel*Frame) : 0.242
Stream size : 2.41 GiB (91%)
Language : English
Default : Yes
Forced : No
Color range : Limited
Color primaries : BT.709
Transfer characteristics : BT.709
Matrix coefficients : BT.709
Audio
ID : 2
Format : AC-3
Format/Info : Audio Coding 3
Mode extension : CM (complete main)
Format settings, Endianness : Big
Codec ID : A_AC3
Duration : 1h 26mn
Bit rate mode : Constant
Bit rate : 384 Kbps
Channel(s) : 6 channels
Channel positions : Front: L C R, Side: L R, LFE
Sampling rate : 48.0 KHz
Frame rate : 31.250 fps (1536 spf)
Compression mode : Lossy
Stream size : 239 MiB (9%)
Language : Russian
Default : Yes
Forced : No
Menu
00:00:00.000 : en:Глава 1
00:05:09.000 : en:Глава 2
00:10:17.541 : en:Глава 3
00:15:26.291 : en:Глава 4
00:21:16.832 : en:Глава 5
00:27:04.165 : en:Глава 6
00:32:19.956 : en:Глава 7
00:37:51.789 : en:Глава 8
00:43:00.122 : en:Глава 9
00:48:50.122 : en:Глава 10
00:54:06.622 : en:Глава 11
00:59:43.372 : en:Глава 12
01:05:15.580 : en:Глава 13
01:10:28.996 : en:Глава 14
01:16:43.079 : en:Глава 15

Скриншоты

[Профиль] [ЛС]
Показать сообщения:    

Текущее время: Сегодня 13:04

Часовой пояс: GMT



Вы не можете начинать темы
Вы не можете отвечать на сообщения
Вы не можете редактировать свои сообщения
Вы не можете удалять свои сообщения
Вы не можете голосовать в опросах
Вы не можете прикреплять файлы к сообщениям
Вы не можете скачивать файлы