Пятница 13-е / Friday the 13th (2009) BDRip 1080p | D, A

 
Автор Сообщение

sergej644 ®

Пол:

Стаж: 4 года 11 месяцев

Сообщений: 6043

Откуда: Soviet Union



Награды: Нет

Торрент-статистика

Создавать темы 19-Дек-2014 18:43

[Цитировать]

Информация о фильме
Название: Пятница 13-е
Оригинальное название: Friday the 13th
Год выпуска: 2009
Страна: США
Жанр: Ужасы
Продолжительность: 01:45:42
Перевод: Профессиональный (дублированный), авторский (одноголосый закадровый) Ю. Немахов, В. Горчаков, С. Сергеев (RussianGuy27)
Оригинальная аудиодорожка: Английский
Cубтитры: Русские, английские
Режиссер: Маркус Ниспел
В ролях: Джаред Падалецки, Даниэль Панабэйкер, Аманда Риджетти, Трэвис Ван Винкл, Аарон Йу, Дерек Мирс, Джонатан Садовский, Джулианна Гуилл, Бен Фельдман, Арлен Эскарпета, Райан Хансен, Уилла Форд, Ник Меннелл, Америка Оливо, Кайл Дэвис, Ричард Берджи, Крис Коппола, Розмари Ноуэр, Боб Кинг, Нана Визитор, Стефани Родс
Описание: Молодые друзья Уитни, Майк, Ричи, Аманда и Уэйд заблудились в лесах около заброшенного лагеря "Хрустальное озеро". Когда их любопытство взяло верх, они решили посетить то место, где когда-то обитал убийца-психопат. Тем временем Трент приглашает друзей: Джену, Брии, Чеви, Челси, Лоуренса и Нолана в его хижину, расположенную у озера, на уикэнд, полный секса, выпивки и наркотиков.
Однако их забавный уикэнд, по-видимому, скоро перерастет в кошмар после того, как одинокий путешественник Клэй начинает поиски своей пропавшей сестры Уитни, и молодые тинейджеры вскоре оказываются лицом к лицу со злом, заново рожденным, невообразимым, и усовершенствованным, его имя Джейсон Вурхиз!

Качество: BDRip 1080p
Формат: MKV
Видео кодек: H264
Аудио кодек: AC3
Видео: MPEG4 Video (H264), 1920x800, 23.976 fps, 12.0 Mbps
Аудио #1: Русский: Dolby AC3, 48000 Hz, 6ch, 640 kbps - Дубляж
Аудио #2: Русский: Dolby AC3, 48000 Hz, 6ch, 640 kbps - Одноголосый - Ю. Немахов
Аудио #3: Русский: Dolby AC3, 48000 Hz, 6ch, 640 kbps - Одноголосый - В. Горчаков
Аудио #4: Русский: Dolby AC3, 48000 Hz, 6ch, 384 kbps - Одноголосый - С. Сергеев (RussianGuy27)
Аудио #5: Украинский: Dolby AC3, 48000 Hz, 6ch, 448 kbps
Аудио #6: Английский: Dolby AC3, 48000 Hz, 6ch, 640 kbps
Формат субтитров: softsub (SRT)
Сэмпл

MediaInfo:

General
Unique ID : 187001272607759346320493203395334587280 (0x8CAF2292FD4A174D810E6D708D2F4390)
Complete name : F:DVDRip2009 Пятница 13-е.mkv
Format : Matroska
Format version : Version 4 / Version 2
File size : 11.4 GiB
Duration : 1h 45mn
Overall bit rate : 15.4 Mbps
Encoded date : UTC 2014-12-19 15:44:29
Writing application : mkvmerge v7.1.0 ('Good Love') 32bit built on Jul 27 2014 12:59:18
Writing library : libebml v1.3.0 + libmatroska v1.4.1
DURATION : 01:38:33.074000000
NUMBER_OF_FRAMES : 979
NUMBER_OF_BYTES : 29759
_STATISTICS_WRITING_APP : mkvmerge v7.1.0 ('Good Love') 32bit built on Jul 27 2014 12:59:18
_STATISTICS_WRITING_DATE_UTC : 2014-12-19 15:44:29
_STATISTICS_TAGS : BPS DURATION NUMBER_OF_FRAMES NUMBER_OF_BYTES
Video
ID : 1
Format : AVC
Format/Info : Advanced Video Codec
Format profile : High@L4.1
Format settings, CABAC : Yes
Format settings, ReFrames : 4 frames
Codec ID : V_MPEG4/ISO/AVC
Duration : 1h 45mn
Bit rate : 12.0 Mbps
Width : 1 920 pixels
Height : 800 pixels
Display aspect ratio : 2.40:1
Frame rate mode : Constant
Frame rate : 23.976 fps
Color space : YUV
Chroma subsampling : 4:2:0
Bit depth : 8 bits
Scan type : Progressive
Bits/(Pixel*Frame) : 0.326
Stream size : 8.63 GiB (76%)
Title : Пятница 13-е 2009 / renta23
Writing library : x264 core 125 r2208 d9d2288
Encoding settings : cabac=1 / ref=5 / deblock=1:-1:-1 / analyse=0x3:0x133 / me=umh / subme=11 / psy=1 / psy_rd=1.20:0.25 / mixed_ref=1 / me_range=32 / chroma_me=1 / trellis=2 / 8x8dct=1 / cqm=0 / deadzone=21,11 / fast_pskip=0 / chroma_qp_offset=-4 / threads=12 / lookahead_threads=2 / sliced_threads=0 / nr=0 / decimate=1 / interlaced=0 / bluray_compat=0 / constrained_intra=0 / bframes=12 / b_pyramid=1 / b_adapt=2 / b_bias=0 / direct=3 / weightb=1 / open_gop=0 / weightp=2 / keyint=250 / keyint_min=23 / scenecut=40 / intra_refresh=0 / rc_lookahead=50 / rc=2pass / mbtree=1 / bitrate=12000 / ratetol=1.0 / qcomp=0.60 / qpmin=0 / qpmax=69 / qpstep=4 / cplxblur=20.0 / qblur=0.5 / ip_ratio=1.40 / aq=1:1.00
Language : English
Default : Yes
Forced : No
Audio #1
ID : 2
Format : AC-3
Format/Info : Audio Coding 3
Mode extension : CM (complete main)
Format settings, Endianness : Big
Codec ID : A_AC3
Duration : 1h 45mn
Bit rate mode : Constant
Bit rate : 640 Kbps
Channel(s) : 6 channels
Channel positions : Front: L C R, Side: L R, LFE
Sampling rate : 48.0 KHz
Bit depth : 16 bits
Compression mode : Lossy
Stream size : 484 MiB (4%)
Title : Дубляж
Language : Russian
Default : Yes
Forced : No
Audio #2
ID : 3
Format : AC-3
Format/Info : Audio Coding 3
Mode extension : CM (complete main)
Format settings, Endianness : Big
Codec ID : A_AC3
Duration : 1h 45mn
Bit rate mode : Constant
Bit rate : 640 Kbps
Channel(s) : 6 channels
Channel positions : Front: L C R, Side: L R, LFE
Sampling rate : 48.0 KHz
Bit depth : 16 bits
Compression mode : Lossy
Stream size : 484 MiB (4%)
Title : Одноголосый - Ю. Немахов
Language : Russian
Default : No
Forced : No
Audio #3
ID : 4
Format : AC-3
Format/Info : Audio Coding 3
Mode extension : CM (complete main)
Format settings, Endianness : Big
Codec ID : A_AC3
Duration : 1h 45mn
Bit rate mode : Constant
Bit rate : 640 Kbps
Channel(s) : 6 channels
Channel positions : Front: L C R, Side: L R, LFE
Sampling rate : 48.0 KHz
Bit depth : 16 bits
Compression mode : Lossy
Stream size : 484 MiB (4%)
Title : Одноголосый - В. Горчаков
Language : Russian
Default : No
Forced : No
Audio #4
ID : 5
Format : AC-3
Format/Info : Audio Coding 3
Mode extension : CM (complete main)
Format settings, Endianness : Big
Codec ID : A_AC3
Duration : 1h 45mn
Bit rate mode : Constant
Bit rate : 384 Kbps
Channel(s) : 6 channels
Channel positions : Front: L C R, Side: L R, LFE
Sampling rate : 48.0 KHz
Bit depth : 16 bits
Compression mode : Lossy
Stream size : 290 MiB (2%)
Title : Одноголосый - С. Сергеев (RussianGuy27)
Language : Russian
Default : No
Forced : No
Audio #5
ID : 6
Format : AC-3
Format/Info : Audio Coding 3
Mode extension : CM (complete main)
Format settings, Endianness : Big
Codec ID : A_AC3
Duration : 1h 45mn
Bit rate mode : Constant
Bit rate : 448 Kbps
Channel(s) : 6 channels
Channel positions : Front: L C R, Side: L R, LFE
Sampling rate : 48.0 KHz
Bit depth : 16 bits
Compression mode : Lossy
Stream size : 339 MiB (3%)
Language : Ukrainian
Default : No
Forced : No
Audio #6
ID : 7
Format : AC-3
Format/Info : Audio Coding 3
Mode extension : CM (complete main)
Format settings, Endianness : Big
Codec ID : A_AC3
Duration : 1h 45mn
Bit rate mode : Constant
Bit rate : 640 Kbps
Channel(s) : 6 channels
Channel positions : Front: L C R, Side: L R, LFE
Sampling rate : 48.0 KHz
Bit depth : 16 bits
Compression mode : Lossy
Stream size : 484 MiB (4%)
Language : English
Default : No
Forced : No
Text #1
ID : 8
Format : UTF-8
Codec ID : S_TEXT/UTF8
Codec ID/Info : UTF-8 Plain Text
Language : Russian
Default : No
Forced : No
Text #2
ID : 9
Format : UTF-8
Codec ID : S_TEXT/UTF8
Codec ID/Info : UTF-8 Plain Text
Language : English
Default : No
Forced : No
Menu
00:00:00.000 : en:Chapter 01
00:03:34.881 : en:Chapter 02
00:08:20.583 : en:Chapter 03
00:12:16.193 : en:Chapter 04
00:15:27.801 : en:Chapter 05
00:19:46.643 : en:Chapter 06
00:23:50.470 : en:Chapter 07
00:28:49.894 : en:Chapter 08
00:32:41.084 : en:Chapter 09
00:37:18.736 : en:Chapter 10
00:39:37.833 : en:Chapter 11
00:43:32.776 : en:Chapter 12
00:49:36.556 : en:Chapter 13
00:53:53.188 : en:Chapter 14
01:01:01.949 : en:Chapter 15
01:04:50.011 : en:Chapter 16
01:08:27.520 : en:Chapter 17
01:11:02.675 : en:Chapter 18
01:16:08.814 : en:Chapter 19
01:19:39.024 : en:Chapter 20
01:22:19.309 : en:Chapter 21
01:24:50.627 : en:Chapter 22
01:29:54.305 : en:Chapter 23
01:33:36.861 : en:Chapter 24
01:37:45.234 : en:Chapter 25
01:39:48.607 : en:Chapter 26
01:45:29.323 : en:Chapter 27

[Профиль] [ЛС]
Показать сообщения:    

Текущее время: Сегодня 20:28

Часовой пояс: GMT



Вы не можете начинать темы
Вы не можете отвечать на сообщения
Вы не можете редактировать свои сообщения
Вы не можете удалять свои сообщения
Вы не можете голосовать в опросах
Вы не можете прикреплять файлы к сообщениям
Вы не можете скачивать файлы