Пятеро друзей 3 / Funf Freunde 3 (Майк Марзук / Mike Marzuk) [2014, Германия, Семейный, приключения, HDRip-AVC] DVO + Sub Rus

 
Автор Сообщение

TorrentFilm ®

Пол:

Стаж: 2 года

Сообщений: 7741



Награды: Нет

Торрент-статистика

Создавать темы 29-Дек-2014 00:15

[Цитировать]

Пятеро друзей 3 / Fünf Freunde 3-- Страна: Германия
Жанр: семейный, приключения
Год выпуска: 2014
Продолжительность: 01:35:17--Перевод: Любительский (двухголосый закадровый RG TheAngelOfDeath & SweetySacrifice)
Cубтитры: русские (mig_88), немецкие
Режиссер: Майк Марзук / Mike Marzuk-В ролях: Квирин Ёттль, Юстус Шлингензипен, Валерия Айзенбарт, Нееле-Мари Никель, Коффи, Скай Дюмон, Михаэль Фитц, Михаэль Кесслер, Нора фон Вальдштеттен, Давина Вебер-Описание: Фильм рассказывает о пяти неразлучных друзьях. Четыре подростка и их пёс Тимми отправляются в путешествие на райский остров, на котором они находят компас с затонувшего корабля. На острове они знакомятся с местной девочкой Джо, которая рассказывает им, что с помощью этого компаса можно найти клад...
Ребята узнают о том, что бизнесмен Хейнс планирует построить на острове элитный курорт, из-за этого семья Джо может лишиться своего дома. Друзья отправляются в опасные джунгли на поиски золота. Однако они не знают, что также за кладом охотятся бандиты Кесси и Ник...--Сэмпл: http://sendfile.su/1062809-Качество видео: HDRip-AVC
Формат видео: MKV--Видео: AVC, 720x390 (1,85:1), 24 fps, 1779 kbp
Аудио: AC-3, 48 KHz, 384 kbps, 6 ch, 16 bit
Формат субтитров: softsub (SRT)

MediaInfo

Общее
Уникальный идентификатор : 187005068292672835501557007367538420114 (0x8CAFDDB744B5E3A8B5119C95E1FB2992)
Полное имя : D:\КИНО\Funf Freunde 3 (2014) RUS.mkv
Формат : Matroska
Версия формата : Version 4 / Version 2
Размер файла : 1,47 Гбайт
Продолжительность : 1 ч. 35 м.
Общий поток : 2207 Кбит/сек
Дата кодирования : UTC 2014-12-16 17:03:58
Программа кодирования : mkvmerge v7.2.0 ('On Every Street') 32bit built on Sep 13 2014 15:42:11
Библиотека кодирования : libebml v1.3.0 + libmatroska v1.4.1
_STATISTICS_WRITING_APP : mkvmerge v7.2.0 ('On Every Street') 32bit built on Sep 13 2014 15:42:11
_STATISTICS_WRITING_DATE_UTC : 2014-12-16 17:03:58
_STATISTICS_TAGS : BPS DURATION NUMBER_OF_FRAMES NUMBER_OF_BYTES
DURATION : 01:35:17.024000000
NUMBER_OF_FRAMES : 178657
NUMBER_OF_BYTES : 274417152
Видео
Идентификатор : 1
Формат : AVC
Формат/Информация : Advanced Video Codec
Профиль формата : High@L3.1
Параметр CABAC формата : Да
Параметр ReFrames формата : 5 кадров
Идентификатор кодека : V_MPEG4/ISO/AVC
Продолжительность : 1 ч. 35 м.
Битрейт : 1779 Кбит/сек
Ширина : 720 пикселей
Высота : 390 пикселей
Соотношение сторон : 1,85:1
Режим частоты кадров : Постоянный
Частота кадров : 24,000 кадра/сек
Цветовое пространство : YUV
Субдискретизация насыщенности : 4:2:0
Битовая глубина : 8 бит
Тип развёртки : Прогрессивная
Бит/(Пиксели*Кадры) : 0.264
Размер потока : 1,18 Гбайт (81%)
Библиотека кодирования : x264 core 142 r2479 dd79a61
Настройки программы : cabac=1 / ref=5 / deblock=1:-1:-1 / analyse=0x3:0x133 / me=umh / subme=7 / psy=1 / psy_rd=1.00:0.15 / mixed_ref=1 / me_range=16 / chroma_me=1 / trellis=1 / 8x8dct=1 / cqm=0 / deadzone=21,11 / fast_pskip=0 / chroma_qp_offset=-3 / threads=18 / lookahead_threads=3 / sliced_threads=0 / nr=0 / decimate=1 / interlaced=0 / bluray_compat=0 / constrained_intra=0 / bframes=3 / b_pyramid=2 / b_adapt=1 / b_bias=0 / direct=3 / weightb=1 / open_gop=0 / weightp=2 / keyint=240 / keyint_min=24 / scenecut=40 / intra_refresh=0 / rc_lookahead=50 / rc=crf / mbtree=1 / crf=19.0 / qcomp=0.60 / qpmin=10 / qpmax=51 / qpstep=4 / vbv_maxrate=17500 / vbv_bufsize=17500 / crf_max=0.0 / nal_hrd=none / filler=0 / ip_ratio=1.40 / aq=1:1.00
Язык : English
Default : Да
Forced : Нет
_STATISTICS_WRITING_APP : mkvmerge v7.2.0 ('On Every Street') 32bit built on Sep 13 2014 15:42:11
_STATISTICS_WRITING_DATE_UTC : 2014-12-16 17:03:58
_STATISTICS_TAGS : BPS DURATION NUMBER_OF_FRAMES NUMBER_OF_BYTES
DURATION : 01:35:17.917000000
NUMBER_OF_FRAMES : 137230
NUMBER_OF_BYTES : 1299763119
Аудио
Идентификатор : 2
Формат : AC-3
Формат/Информация : Audio Coding 3
Расширение режима : CM (complete main)
Параметр Endianness формата : Big
Идентификатор кодека : A_AC3
Продолжительность : 1 ч. 35 м.
Вид битрейта : Постоянный
Битрейт : 384 Кбит/сек
Каналы : 6 каналов
Расположение каналов : Front: L C R, Side: L R, LFE
Частота : 48,0 КГц
Битовая глубина : 16 бит
Метод сжатия : С потерями
Размер потока : 262 Мбайт (17%)
Заголовок : Russian
Язык : Russian
Default : Да
Forced : Нет
Текст #1
Идентификатор : 3
Формат : UTF-8
Идентификатор кодека : S_TEXT/UTF8
Идентификатор кодека/Информация : UTF-8 Plain Text
Заголовок : Russian
Язык : Russian
Default : Да
Forced : Нет
Текст #2
Идентификатор : 4
Формат : VobSub
Режим смешивания : zlib
Идентификатор кодека : S_VOBSUB
Идентификатор кодека/Информация : The same subtitle format used on DVDs
Заголовок : German
Язык : German
Default : Нет
Forced : Нет
Меню
00:00:00.000 : en:00:00:00.000
00:04:57.750 : en:00:04:57.750
00:09:39.417 : en:00:09:39.417
00:14:40.167 : en:00:14:40.167
00:20:48.375 : en:00:20:48.375
00:26:02.792 : en:00:26:02.792
00:32:49.750 : en:00:32:49.750
00:39:48.042 : en:00:39:48.042
00:45:58.000 : en:00:45:58.000
00:51:32.917 : en:00:51:32.917
00:56:45.917 : en:00:56:45.917
01:03:01.000 : en:01:03:01.000
01:08:27.500 : en:01:08:27.500
01:13:31.375 : en:01:13:31.375
01:17:44.000 : en:01:17:44.000
01:21:07.958 : en:01:21:07.958
01:28:48.375 : en:01:28:48.375
01:31:20.458 : en:01:31:20.458

Скриншот c названием фильма

Скриншоты



[Профиль] [ЛС]
Показать сообщения:    

Текущее время: Сегодня 00:17

Часовой пояс: GMT



Вы не можете начинать темы
Вы не можете отвечать на сообщения
Вы не можете редактировать свои сообщения
Вы не можете удалять свои сообщения
Вы не можете голосовать в опросах
Вы не можете прикреплять файлы к сообщениям
Вы не можете скачивать файлы