Пэн: Путешествие в Нетландию / Pan (2015) DVD5 | D

 
Автор Сообщение

ODESSA ®

Пол:

Стаж: 1 год 7 месяцев

Сообщений: 400

Откуда: ODESSA



Награды: Нет

Торрент-статистика

Создавать темы 05-Июл-2016 08:49

[Цитировать]

--Информация о фильме
Название: Пэн: Путешествие в Нетландию
Оригинальное название: Pan
Год выхода: 2015
Жанр: фэнтези, приключения, семейный
Режиссер: Джо Райт
В ролях: Хью Джекман, Леви Миллер, Гаррет Хедлунд, Руни Мара, Адиль Ахтар, Нонсо Анози, Аманда Сайфред, Кэти Бёрк, Льюис МакДугалл, Кара Делевинь-О фильме:
История о сироте, который попал в волшебную Нетландию, где его поджидали опасные приключения. Там он понял, что его судьба — стать героем, который навсегда останется известен под именем Питер Пэн.- -Страна: США, Великобритания, Австралия
Студия: The Moving Picture Company, RatPac-Dune Entertainment, Warner Bros. Pictures
Продолжительность: 107 мин. / 01:47
Перевод: полное дублирование-Файл
Кодек: MPEG2
Качество: DVD5 (сжатый)
Видео: PAL 16:9 (720x576@1024x576) VBR 4807 Kbps, 25.000 fps
Аудио: Dolby AC3, 6 ch, 48.0 KHz, 384 Kbps (русский, английский)
Субтитры: русские, английские, чешские, эстонские, латышские, литовские, португальские--

Процесс изготовления диска

Исходник: Пэн: Путешествие в Нетландию / Pan (2015) DVD9 от New-Team | Лицензия
Удалены: бонусы, предупреждающие надписи, чешская, португальская, словацкая и английская (AC3 2.0) звуковые дорожки (в меню кнопки затерты). Команды диска переписаны заново, оставлен один VTS.
Видео сжато на 6.4%
Меню: статичное, недействующие кнопки затерты и закрыты.
Обработка и сжатие: DVD ReMake Pro + DVD Rebuilder + CCE SP2 [7 проходов] + Работа с меню (Adobe PhotoShop и MuxMan).
Автор релиза: J9-1000

MediaInfo

Общее
Полное имя : D:Pan (2015) DVD5VIDEO_TSVTS_01_2.VOB
Формат : MPEG-PS
Размер файла : 1024 Мбайт
Продолжительность : 25 м.
Режим общего битрейта : Переменный
Общий поток : 5688 Кбит/сек
Видео
Идентификатор : 224 (0xE0)
Формат : MPEG Video
Версия формата : Version 2
Профиль формата : Main@Main
Параметр BVOP формата : Да
Параметр матрицы формата : Выборочная
Параметр GOP формата : Variable
Структура изображения : Frame
Продолжительность : 25 м.
Вид битрейта : Переменный
Битрейт : 4807 Кбит/сек
Максимальный битрейт : 7627 Кбит/сек
Ширина : 720 пикселей
Высота : 576 пикселей
Соотношение сторон : 16:9
Частота кадров : 25,000 кадров/сек
Стандарт вещания : PAL
Цветовое пространство : YUV
Субдискретизация насыщенности : 4:2:0
Битовая глубина : 8 бит
Тип развёртки : Чересстрочная
Порядок развёртки : Верхнее поле первое
Метод сжатия : С потерями
Бит/(Пиксели*Кадры) : 0.464
Временной код первого кадра : 00:25:15:11
Оригинал временного кода : Group of pictures header
GOP, открыто/закрыто : Открыто
Размер потока : 865 Мбайт (85%)
Аудио #1
Идентификатор : 189 (0xBD)-128 (0x80)
Формат : AC-3
Формат/Информация : Audio Coding 3
Расширение режима : CM (complete main)
Параметр Endianness формата : Big
Режим смешивания : DVD-Video
Продолжительность : 25 м.
Вид битрейта : Постоянный
Битрейт : 384 Кбит/сек
Каналы : 6 каналов
Расположение каналов : Front: L C R, Side: L R, LFE
Частота : 48,0 КГц
Частота кадров : 31,250 кадров/сек (1536 spf)
Метод сжатия : С потерями
Задержка видео : -448 мс.
Размер потока : 69,1 Мбайт (7%)
Аудио #2
Идентификатор : 189 (0xBD)-131 (0x83)
Формат : AC-3
Формат/Информация : Audio Coding 3
Расширение режима : CM (complete main)
Параметр Endianness формата : Big
Режим смешивания : DVD-Video
Продолжительность : 25 м.
Вид битрейта : Постоянный
Битрейт : 384 Кбит/сек
Каналы : 6 каналов
Расположение каналов : Front: L C R, Side: L R, LFE
Частота : 48,0 КГц
Частота кадров : 31,250 кадров/сек (1536 spf)
Метод сжатия : С потерями
Задержка видео : -384 мс.
Размер потока : 69,1 Мбайт (7%)
Текст #1
Идентификатор : 189 (0xBD)-32 (0x20)
Формат : RLE
Формат/Информация : Run-length encoding
Режим смешивания : DVD-Video
Задержка видео : 2 с. 200 мс.
Текст #2
Идентификатор : 189 (0xBD)-33 (0x21)
Формат : RLE
Формат/Информация : Run-length encoding
Режим смешивания : DVD-Video
Задержка видео : 2 с. 320 мс.
Текст #3
Идентификатор : 189 (0xBD)-34 (0x22)
Формат : RLE
Формат/Информация : Run-length encoding
Режим смешивания : DVD-Video
Задержка видео : 2 с. 320 мс.
Текст #4
Идентификатор : 189 (0xBD)-35 (0x23)
Формат : RLE
Формат/Информация : Run-length encoding
Режим смешивания : DVD-Video
Задержка видео : 2 с. 240 мс.
Текст #5
Идентификатор : 189 (0xBD)-36 (0x24)
Формат : RLE
Формат/Информация : Run-length encoding
Режим смешивания : DVD-Video
Задержка видео : 2 с. 240 мс.
Текст #6
Идентификатор : 189 (0xBD)-37 (0x25)
Формат : RLE
Формат/Информация : Run-length encoding
Режим смешивания : DVD-Video
Задержка видео : 2 с. 160 мс.
Текст #7
Идентификатор : 189 (0xBD)-38 (0x26)
Формат : RLE
Формат/Информация : Run-length encoding
Режим смешивания : DVD-Video
Задержка видео : 2 с. 200 мс.
Меню

Скриншоты


[Профиль] [ЛС]
Показать сообщения:    

Текущее время: Сегодня 10:49

Часовой пояс: GMT



Вы не можете начинать темы
Вы не можете отвечать на сообщения
Вы не можете редактировать свои сообщения
Вы не можете удалять свои сообщения
Вы не можете голосовать в опросах
Вы не можете прикреплять файлы к сообщениям
Вы не можете скачивать файлы