Пэн: Путешествие в Нетландию / Pan (2015) HDRip | КПК | Лицензия

 
Автор Сообщение

достали все ®

Пол:

Стаж: 1 год 8 месяцев

Сообщений: 6598



Награды: 12 (Подробнее)

Top Releaser 4 (Количество: 1) Mega Seeder 4 (Количество: 1) Top Releaser 2 (Количество: 1)
Торрент-статистика

Создавать темы 03-Фев-2016 10:28

[Цитировать]

• Пэн: Путешествие в Нетландию / Pan • Страна: США, Великобритания, Австралия
Производство: Berlanti Productions, Moving Picture Company, The, RatPac-Dune Entertainment, Warner Bros. Pictures
Год выпуска: 2015
Жанр: фэнтези, приключения, семейный
Режиссёр: Джо Райт
В ролях: Хью Джекман, Леви Миллер, Гаррет Хедлунд, Руни Мара, Адиль Ахтар, Нонсо Анози, Аманда Сайфред, Кэти Бёрк, Льюис МакДугалл, Кара Делевинь
Перевод: Профессиональный (полное дублирование) Лицензия
Описание: История о сироте, который попал в волшебную Нетландию, где его поджидали опасные приключения. Там он понял, что его судьба — стать героем, который навсегда останется известен под именем Питер Пэн.

Качество: HDRip
Продолжительность: 01:51:32
Формат: MP4
Видео кодек: H.264
Аудио кодек: AAC-LC
Свойства видео: 640x266 (2:41:1), 23.936 fps, 500 kbps (0.122 bit/pixel)
Свойства аудио: 48.0 KHz, 2 ch, 128 kbps

MediaInfo

General
Complete name : X:Всё для мобильных телефонов и КПКВидеоPan.2015.HDRip.mp4
Format : MPEG-4
Format profile : Base Media
Codec ID : isom (isom/avc1/iso6)
File size : 504 MiB
Duration : 1h 51mn
Overall bit rate mode : Variable
Overall bit rate : 632 Kbps
Encoded date : UTC 2016-01-01 22:18:19
Tagged date : UTC 2016-01-01 22:18:19
Video
ID : 1
Format : AVC
Format/Info : Advanced Video Codec
Format profile : High@L4.1
Format settings, CABAC : Yes
Format settings, ReFrames : 9 frames
Codec ID : avc1
Codec ID/Info : Advanced Video Coding
Duration : 1h 51mn
Bit rate : 500 Kbps
Maximum bit rate : 1 658 Kbps
Width : 640 pixels
Height : 266 pixels
Display aspect ratio : 2.40:1
Frame rate mode : Constant
Frame rate : 23.976 (24000/1001) fps
Color space : YUV
Chroma subsampling : 4:2:0
Bit depth : 8 bits
Scan type : Progressive
Bits/(Pixel*Frame) : 0.122
Stream size : 399 MiB (79%)
Title : 264@GPAC0.5.2-DEV-rev248-g39d5978-master
Writing library : x264 core 146 r2538 121396c
Encoding settings : cabac=1 / ref=9 / deblock=1:-3:-3 / analyse=0x3:0x113 / me=umh / subme=11 / psy=1 / psy_rd=1.00:0.00 / mixed_ref=1 / me_range=32 / chroma_me=1 / trellis=2 / 8x8dct=1 / cqm=0 / deadzone=21,11 / fast_pskip=0 / chroma_qp_offset=-2 / threads=6 / lookahead_threads=1 / sliced_threads=0 / nr=0 / decimate=0 / interlaced=0 / bluray_compat=0 / constrained_intra=0 / bframes=9 / b_pyramid=2 / b_adapt=2 / b_bias=0 / direct=3 / weightb=1 / open_gop=0 / weightp=2 / keyint=240 / keyint_min=23 / scenecut=40 / intra_refresh=0 / rc=2pass / mbtree=0 / bitrate=500 / ratetol=1.0 / qcomp=0.60 / qpmin=0 / qpmax=69 / qpstep=4 / cplxblur=20.0 / qblur=0.5 / ip_ratio=1.40 / pb_ratio=1.30 / aq=1:1.00
Encoded date : UTC 2016-01-01 22:18:19
Tagged date : UTC 2016-01-01 22:18:38
Audio
ID : 2
Format : AAC
Format/Info : Advanced Audio Codec
Format profile : LC
Codec ID : 40
Duration : 1h 51mn
Bit rate mode : Variable
Bit rate : 128 Kbps
Maximum bit rate : 173 Kbps
Channel(s) : 2 channels
Channel positions : Front: L R
Sampling rate : 48.0 KHz
Frame rate : 46.875 fps (1024 spf)
Compression mode : Lossy
Stream size : 102 MiB (20%)
Encoded date : UTC 2016-01-01 17:52:15
Tagged date : UTC 2016-01-01 22:18:38

Скриншоты

[Профиль] [ЛС]
Показать сообщения:    

Текущее время: Сегодня 11:55

Часовой пояс: GMT



Вы не можете начинать темы
Вы не можете отвечать на сообщения
Вы не можете редактировать свои сообщения
Вы не можете удалять свои сообщения
Вы не можете голосовать в опросах
Вы не можете прикреплять файлы к сообщениям
Вы не можете скачивать файлы