Пэн: Путешествие в Нетландию / Pan (Джо Райт / Joe Wright) [2015, США, Великобритания, Австралия, Фэнтези, Приключения, Семейный, BDRip-AVC] DVO (ColdFilm) + Sub Eng + Original Eng

 
Автор Сообщение

TorrentFilm ®

Пол:

Стаж: 2 года

Сообщений: 7741



Награды: Нет

Торрент-статистика

Создавать темы 18-Дек-2015 00:07

[Цитировать]


Пэн: Путешествие в Нетландию
Pan
«У каждой легенды есть своё начало»
- Страна: США, Великобритания, Австралия
Жанр: Фэнтези, Приключения, Семейный
Год выпуска: 2015
Продолжительность: 01:51:32
Перевод: Любительский (двухголосый закадровый) ColdFilm
Cубтитры: английские
Оригинальная аудиодорожка: английский-Режиссер: Джо Райт / Joe Wright
В ролях:
Хью Джекман | Hugh Jackman
Леви Миллер | Levi Miller
Гаррет Хедлунд, Руни Мара, Адиль Ахтар, Нонсо Анози, Аманда Сайфред, Кэти Бёрк, Льюис МакДугалл, Кара Делевинь, Тхэ-чжу На, Джек Чарльз, Бронсон Уэбб, Шеперд, Брайан Бовелл, Курт Эгиаван, Джимми Ви, Пол Хантер, Спенсер Уидлинг, Дин Нолан-Описание
Питер Пэн — безграмотный лондонский сирота, в поисках матери и собственного предназначения оказавшийся в Нетландии. Здесь ему предстоит стать не кем иным, как лидером восстания местных жителей против злых , которое возглавляет капитан Черная борода. А вот вечный враг Пэна, Джеймс Крюк, окажется его союзником и вообще обаятельным, мужественным парнем с отменным чувством юмора и обеими конечностями. Заручившись поддержкой Тигровой Лилии, принцессы индейского племени, Питер и Крюк поведут недовольных обитателей волшебной страны в бой против коварных узурпаторов…-Сэмпл

IMDb: 6.00 (13 614)
Качество видео: BDRip-AVC Pan.Puteshestvie.v.Netlandiyu.2015.BDRemux.1080p.nnm-club
Формат видео: MKV
Видео: AVC 3506 Kbps 1152 x 480 (2.400) 23.976 fps
Аудио: AC-3 384 Kbps 6 channels, 48.0 KHz Rus DVO
Аудио 2: AC-3 448 Kbps 6 channels, 48.0 KHz Eng
Формат субтитров: softsub (SRT)

MediaInfo | LogLog

x264 [info]: frame I:1220 Avg QP:15.06 size: 88368
x264 [info]: frame P:38122 Avg QP:17.12 size: 36840
x264 [info]: frame B:121108 Avg QP:19.23 size: 12321
x264 [info]: consecutive B-frames: 3.0% 4.4% 8.2% 28.9% 16.3% 27.5% 4.8% 5.1% 0.8% 0.1% 0.2% 0.6% 0.2%
x264 [info]: mb I I16..4: 8.5% 74.1% 17.4%
x264 [info]: mb P I16..4: 1.1% 20.8% 2.2% P16..4: 23.8% 29.9% 13.6% 2.7% 0.3% skip: 5.6%
x264 [info]: mb B I16..4: 0.1% 2.6% 0.3% B16..8: 31.8% 23.9% 5.2% direct: 6.4% skip:29.6% L0:40.9% L1:44.2% BI:14.9%
x264 [info]: 8x8 transform intra:85.1% inter:57.1%
x264 [info]: direct mvs spatial:99.9% temporal:0.1%
x264 [info]: coded y,uvDC,uvAC intra: 92.7% 92.3% 77.8% inter: 31.0% 25.5% 9.5%
x264 [info]: i16 v,h,dc,p: 34% 10% 8% 49%
x264 [info]: i8 v,h,dc,ddl,ddr,vr,hd,vl,hu: 8% 7% 8% 10% 14% 13% 13% 12% 14%
x264 [info]: i4 v,h,dc,ddl,ddr,vr,hd,vl,hu: 8% 7% 5% 9% 16% 15% 15% 12% 14%
x264 [info]: i8c dc,h,v,p: 50% 18% 15% 17%
x264 [info]: Weighted P-Frames: Y:8.8% UV:4.3%
x264 [info]: ref P L0: 46.1% 12.7% 16.5% 6.0% 5.0% 3.5% 3.3% 1.9% 1.8% 1.4% 1.5% 0.3% 0.0%
x264 [info]: ref B L0: 77.0% 10.3% 4.2% 2.4% 1.7% 1.6% 1.2% 0.9% 0.5% 0.2%
x264 [info]: ref B L1: 94.7% 5.3%
x264 [info]: kb/s:3591.59
x264 [total]: encoded 160450 frames, 7.77 fps, 3591.59 kb/s, duration 5:44:13.75
Format : Matroska
Format version : Version 4 / Version 2
File size : 3.45 GiB
Duration : 1h 51mn
Overall bit rate : 4 426 Kbps
Encoded date : UTC 2015-12-15 10:51:00
Writing application : mkvmerge v6.7.0 ('Back to the Ground') 32bit built on Jan 8 2014 15:03:17
Writing library : libebml v1.3.0 + libmatroska v1.4.1
Video
ID : 1
Format : AVC
Format/Info : Advanced Video Codec
Format profile : High@L4.1
Format settings, CABAC : Yes
Format settings, ReFrames : 11 frames
Codec ID : V_MPEG4/ISO/AVC
Duration : 1h 51mn
Bit rate : 3 506 Kbps
Width : 1 152 pixels
Height : 480 pixels
Display aspect ratio : 2.40:1
Frame rate mode : Constant
Frame rate : 23.976 fps
Color space : YUV
Chroma subsampling : 4:2:0
Bit depth : 8 bits
Scan type : Progressive
Bits/(Pixel*Frame) : 0.264
Stream size : 2.73 GiB (79%)
Title : Pan (2015) [torrentfilm.net]
Writing library : x264 core 148 r2579kMod 73ae2d1
Encoding settings : cabac=1 / ref=11 / deblock=1:-2:-2 / analyse=0x3:0x133 / me=umh / subme=11 / psy=1 / fade_compensate=0.00 / psy_rd=1.00:0.05 / mixed_ref=1 / me_range=48 / chroma_me=1 / trellis=2 / 8x8dct=1 / cqm=0 / deadzone=21,11 / fast_pskip=0 / chroma_qp_offset=-3 / threads=12 / lookahead_threads=3 / sliced_threads=0 / nr=0 / decimate=1 / interlaced=0 / bluray_compat=0 / constrained_intra=0 / fgo=0 / bframes=12 / b_pyramid=2 / b_adapt=2 / b_bias=0 / direct=3 / weightb=1 / open_gop=0 / weightp=2 / keyint=250 / keyint_min=23 / scenecut=40 / intra_refresh=0 / rc_lookahead=60 / rc=crf / mbtree=0 / crf=17.3000 / qcomp=0.60 / qpmin=0 / qpmax=69 / qpstep=4 / vbv_maxrate=50000 / vbv_bufsize=62500 / crf_max=0.0 / nal_hrd=none / filler=0 / ip_ratio=1.40 / pb_ratio=1.30 / aq=3:0.90
Language : English
Default : Yes
Forced : No
Audio #1
ID : 2
Format : AC-3
Format/Info : Audio Coding 3
Mode extension : CM (complete main)
Format settings, Endianness : Big
Codec ID : A_AC3
Duration : 1h 51mn
Bit rate mode : Constant
Bit rate : 384 Kbps
Channel(s) : 6 channels
Channel positions : Front: L C R, Side: L R, LFE
Sampling rate : 48.0 KHz
Compression mode : Lossy
Stream size : 306 MiB (9%)
Title : DVO [ColdFilm]
Language : Russian
Default : Yes
Forced : No
Audio #2
ID : 3
Format : AC-3
Format/Info : Audio Coding 3
Mode extension : CM (complete main)
Format settings, Endianness : Big
Codec ID : A_AC3
Duration : 1h 51mn
Bit rate mode : Constant
Bit rate : 448 Kbps
Channel(s) : 6 channels
Channel positions : Front: L C R, Side: L R, LFE
Sampling rate : 48.0 KHz
Compression mode : Lossy
Stream size : 357 MiB (10%)
Title : Original
Language : English
Default : No
Forced : No
Text
ID : 4
Format : UTF-8
Codec ID : S_TEXT/UTF8
Codec ID/Info : UTF-8 Plain Text
Title : SDH
Language : English
Default : No
Forced : No
Menu
00:00:00.000 : en:00:00:00.000
00:10:28.419 : en:00:10:28.419
00:19:45.851 : en:00:19:45.851
00:31:07.282 : en:00:31:07.282
00:39:14.060 : en:00:39:14.060
00:48:27.863 : en:00:48:27.863
01:00:07.562 : en:01:00:07.562
01:09:29.374 : en:01:09:29.374
01:20:12.808 : en:01:20:12.808
01:30:02.897 : en:01:30:02.897
01:39:51.027 : en:01:39:51.027
01:43:05.888 : en:01:43:05.888

Скриншоты




[Профиль] [ЛС]
Показать сообщения:    

Текущее время: Сегодня 18:39

Часовой пояс: GMT



Вы не можете начинать темы
Вы не можете отвечать на сообщения
Вы не можете редактировать свои сообщения
Вы не можете удалять свои сообщения
Вы не можете голосовать в опросах
Вы не можете прикреплять файлы к сообщениям
Вы не можете скачивать файлы