Пьяный мастер 2 / Легенда о пьяном мастере / The Legend of Drunken Master / Jui kuen II (1994) BDRip

 
Автор Сообщение

Russian Mafia ®

Пол:

Стаж: 1 год 8 месяцев

Сообщений: 4247



Награды: 10 (Подробнее)

Mega Seeder 1 (Количество: 1) Mega Seeder 3 (Количество: 1) Top Releaser 3 (Количество: 1)
Торрент-статистика

Создавать темы 25-Авг-2015 16:50

[Цитировать]

--Пьяный мастер 2 / Jui kuen II«Не переходи ему дорогу, когда он пьян!»-- Страна: Гонконг
Жанр: боевик, комедия
Год выхода: 1994
Продолжительность: 01:42:30
Перевод 1: профессиональный (многоголосый, закадровый) (СТС)
Перевод 2: авторский (Андрей Гаврилов)
Субтитры: русские (Е. Мишин), английские
Оригинальная аудиодорожка: китайская (мандарин)
Режиссер: Лю Чя-Лян, Джеки Чан
В ролях: Джеки Чан, Ланг Ти, Анита Муи, Феликс Вонг, Лю Чя-Лян, Кен Ло, Кар Лок Чин, Ху Сунг Пак, Чи-Квонг Чеунг, Йи Сан Хон
О фильме: Пьяный мастер возвращается, его стиль становится еще более отточенным и смешным! Возвращаясь домой из шопинг-тура вместе со своим отцом, знаменитый «пьяный мастер» Вонг-Фей Хунг оказывается вовлеченным в потасовку между иностранцами, пытающимися вывезти из Китая ценные древние реликвии, и патриотами, которые хотят помешать вывозу этих предметов из страны.
К сожалению, отец Вонг-Фей Хунга никогда не занимался ни одним из видов спорта, кроме пьяных драк, поэтому герою приходится сражаться практически одному против толпы. Но как всегда его удивительный стиль боя помогает ему расправиться с многочисленными врагами.

Качество: BDRip
Формат: AVI
Видео: 704x304 (2.32:1), 23.976 fps, XviD build 65 ~2272 kbps avg, 0.44 bit/pixel
Аудио #1: (MVO.STS) 48 kHz, AC3 Dolby Digital, 2/0 (L,R) ch, 192 kbps avg
Аудио #2: (AVO.GAVRILOV) 48 kHz, AC3 Dolby Digital, 3/2 (L,C,R,l,r) + LFE ch, 384.00 kbps avg
Аудио #3: (CHI.MANDARIN) 48 kHz, AC3 Dolby Digital, 2/0 (L,R) ch, 192 kbps avg
Формат субтитров: softsub (SRT)-
-

Скриншоты

MediaInfo

General
Complete name                            : Pyanyj.master.2.1994.TRIPLE.BDRip.XviD.AC3.-HQCLUB.avi
Format                                   : AVI
Format/Info                              : Audio Video Interleave
Format profile                           : OpenDML
File size                                : 2.18 GiB
Duration                                 : 1h 42mn
Overall bit rate                         : 3 047 Kbps
Movie name                               : Пьяный мастер 2 / Легенда о пьяном мастере / The Legend of Drunken Master / Jui kuen II (1994) BDRip
Director                                 : Gellard
Genre                                    : боевик, комедия
Writing application                      : VirtualDubMod 1.5.10.2 (build 2542/release)
Copyright                                : HQCLUB
Comment                                  : 12.06.2014
Video
ID                                       : 0
Format                                   : MPEG-4 Visual
Format profile                           : Advanced Simple@L5
Format settings, BVOP                    : 1
Format settings, QPel                    : No
Format settings, GMC                     : No warppoints
Format settings, Matrix                  : Custom
Codec ID                                 : XVID
Codec ID/Hint                            : XviD
Duration                                 : 1h 42mn
Bit rate                                 : 2 255 Kbps
Width                                    : 704 pixels
Height                                   : 304 pixels
Display aspect ratio                     : 2.35:1
Frame rate                               : 23.976 fps
Color space                              : YUV
Chroma subsampling                       : 4:2:0
Bit depth                                : 8 bits
Scan type                                : Progressive
Compression mode                         : Lossy
Bits/(Pixel*Frame)                       : 0.440
Stream size                              : 1.61 GiB (74%)
Writing library                          : XviD 65
Audio #1
ID                                       : 1
Format                                   : AC-3
Format/Info                              : Audio Coding 3
Mode extension                           : CM (complete main)
Format settings, Endianness              : Big
Codec ID                                 : 2000
Duration                                 : 1h 42mn
Bit rate mode                            : Constant
Bit rate                                 : 192 Kbps
Channel count                            : 2 channels
Channel positions                        : Front: L R
Sampling rate                            : 48.0 KHz
Bit depth                                : 16 bits
Compression mode                         : Lossy
Stream size                              : 141 MiB (6%)
Alignment                                : Split accross interleaves
Interleave, duration                     : 42 ms (1.00 video frame)
Interleave, preload duration             : 500 ms
Audio #2
ID                                       : 2
Format                                   : AC-3
Format/Info                              : Audio Coding 3
Mode extension                           : CM (complete main)
Format settings, Endianness              : Big
Codec ID                                 : 2000
Duration                                 : 1h 42mn
Bit rate mode                            : Constant
Bit rate                                 : 384 Kbps
Channel count                            : 6 channels
Channel positions                        : Front: L C R, Side: L R, LFE
Sampling rate                            : 48.0 KHz
Bit depth                                : 16 bits
Compression mode                         : Lossy
Stream size                              : 282 MiB (13%)
Alignment                                : Split accross interleaves
Interleave, duration                     : 42 ms (1.00 video frame)
Interleave, preload duration             : 500 ms
Audio #3
ID                                       : 3
Format                                   : AC-3
Format/Info                              : Audio Coding 3
Mode extension                           : CM (complete main)
Format settings, Endianness              : Big
Codec ID                                 : 2000
Duration                                 : 1h 42mn
Bit rate mode                            : Constant
Bit rate                                 : 192 Kbps
Channel count                            : 2 channels
Channel positions                        : Front: L R
Sampling rate                            : 48.0 KHz
Bit depth                                : 16 bits
Compression mode                         : Lossy
Stream size                              : 141 MiB (6%)
Alignment                                : Split accross interleaves
Interleave, duration                     : 42 ms (1.00 video frame)
Interleave, preload duration             : 500 ms
[Профиль] [ЛС]
Показать сообщения:    

Текущее время: Сегодня 06:25

Часовой пояс: GMT



Вы не можете начинать темы
Вы не можете отвечать на сообщения
Вы не можете редактировать свои сообщения
Вы не можете удалять свои сообщения
Вы не можете голосовать в опросах
Вы не можете прикреплять файлы к сообщениям
Вы не можете скачивать файлы