Пьяный мастер / Jui kuen (1978) BDRip 720p от MediaClub | P, P2, A

 
Автор Сообщение

sergej644 ®

Пол:

Стаж: 4 года 11 месяцев

Сообщений: 6040

Откуда: Soviet Union



Награды: Нет

Торрент-статистика

Создавать темы 10-Фев-2015 09:09

[Цитировать]

Информация о фильме
Название: Пьяный мастер
Оригинальное название: Drunken Master (Jui kuen)
Год выпуска: 1978
Жанр: Боевик, комедия
Режиссер: Ву-Пин Юэнь
В ролях: Джеки Чан, Саймон Юэнь ст., Янг Ли Хванг, Чианг Кам, Чиао Лин
Описание: Джеки Чан играет юношу, прозванного за свой веселый нрав Озорной Пантерой. Многолетние тренировки в школе кунг-фу у своего отца не дали ему серьезных навыков, так как все свободное время он тратил на развлечения с друзьями. Унизительное и жестокое поражение в схватке с мастером кунг–фу меняет его отношение к учебе, и за его обучение берется родной дядя — великий боец с грозной репутацией. Учитель прививает ему глубокие знания техники и философии одного из самых трудных стилей боевого искусства — «пьяного», позволившего вырасти в великого непобедимого мастера.

Выпущено: Гонконг / Seasonal Film
Продолжительность: 01:51:11
Перевод: Профессиональный многоголосый, профессиональный двухголосый, авторский
Файл
Качество: BDRip 720p
Видео: MPEG-4 AVC, 8500 Кбит/с, 1280x534, 23.976 кадр/с
Аудио #1: Русский (AC3, 2 ch, 192 Кбит/с) / Профессиональный двухголосый (Премьер Видео)
Аудио #2: Русский (AC3, 2 ch, 192 Кбит/с) / Профессиональный многоголосый (ОРТ)
Аудио #3: Русский (AC3, 2 ch, 192 Кбит/с) / Авторский одноголосый (Пучков)
Аудио #4: Украинский (AC3, 2 ch, 192 Кбит/с) / Профессиональный двухголосый
Аудио #5: Китайский (AC3, 2 ch, 192 Кбит/с)
Субтитры: Русские, английские
Семпл

Скриншоты

О релизе

За исходник спасибо: ChuckNorriss

MI

x264 [info]: frame I:1005 Avg QP:17.18 size:149969
x264 [info]: frame P:37778 Avg QP:19.72 size: 74175
x264 [info]: frame B:121177 Avg QP:21.40 size: 34123
x264 [info]: consecutive B-frames: 3.1% 5.2% 7.6% 23.4% 16.2% 31.4% 5.1% 5.7% 1.1% 0.4% 0.2% 0.4% 0.0% 0.1%
**************************************************************************************************************************************
Общее
Уникальный идентификатор : 236199287226650545352086057230875699880 (0xB1B253F88BF952CCAEC89020EAD32AA8)
Полное имя : D:Mои раздачиP'yanyi.master.1978.BDRip.720p-MediaClub.mkv
Формат : Matroska
Версия формата : Version 4 / Version 2
Размер файла : 7,35 Гбайт
Продолжительность : 1 ч. 51 м.
Общий поток : 9462 Кбит/сек
Название фильма : -=MediaClub-kaspr=-
Дата кодирования : UTC 2014-10-01 16:08:49
Программа кодирования : mkvmerge v6.9.1 ('Blue Panther') 64bit built on Apr 18 2014 18:23:38
Библиотека кодирования : libebml v1.3.0 + libmatroska v1.4.1
Видео
Идентификатор : 1
Формат : AVC
Формат/Информация : Advanced Video Codec
Профиль формата : High@L4.1
Параметр CABAC формата : Да
Параметр ReFrames формата : 9 кадров
Идентификатор кодека : V_MPEG4/ISO/AVC
Продолжительность : 1 ч. 51 м.
Битрейт : 8500 Кбит/сек
Ширина : 1280 пикселей
Высота : 534 пикселя
Соотношение сторон : 2,40:1
Режим частоты кадров : Постоянный
Частота кадров : 23,976 кадра/сек
Цветовое пространство : YUV
Субдискретизация насыщенности : 4:2:0
Битовая глубина : 8 бит
Тип развёртки : Прогрессивная
Бит/(Пиксели*Кадры) : 0.519
Размер потока : 6,46 Гбайт (88%)
Заголовок : -=MediaClub-kaspr=-
Библиотека кодирования : x264 core 142 r2431+42 c69a006 tMod [8-bit@4:2:0 X86_64]
Настройки программы : cabac=1 / ref=9 / deblock=1:-3:-3 / analyse=0x3:0x113 / me=umh / subme=11 / psy=1 / fade_compensate=0.00 / psy_rd=1.00:0.20 / mixed_ref=1 / me_range=32 / chroma_me=1 / trellis=2 / 8x8dct=1 / cqm=0 / deadzone=21,11 / fast_pskip=0 / chroma_qp_offset=-3 / threads=12 / lookahead_threads=3 / sliced_threads=0 / nr=0 / decimate=0 / interlaced=0 / bluray_compat=0 / constrained_intra=0 / fgo=0 / bframes=13 / b_pyramid=2 / b_adapt=2 / b_bias=0 / direct=3 / weightb=1 / open_gop=0 / weightp=2 / keyint=240 / keyint_min=23 / scenecut=40 / intra_refresh=0 / rc=2pass / mbtree=0 / bitrate=8500 / ratetol=1.0 / qcomp=0.60 / qpmin=0:0:0 / qpmax=69:69:69 / qpstep=4 / cplxblur=20.0 / qblur=0.5 / ip_ratio=1.40 / pb_ratio=1.30 / aq=4:0.80 / aq-sensitivity=10.00 / aq-factor=1.00:1.00:1.00 / aq2=0 / aq3=0
Default : Да
Forced : Нет
Аудио #1
Идентификатор : 2
Формат : AC-3
Формат/Информация : Audio Coding 3
Расширение режима : CM (complete main)
Параметр Endianness формата : Big
Идентификатор кодека : A_AC3
Продолжительность : 1 ч. 51 м.
Вид битрейта : Постоянный
Битрейт : 192 Кбит/сек
Каналы : 2 канала
Расположение каналов : Front: L R
Частота : 48,0 КГц
Битовая глубина : 16 бит
Метод сжатия : С потерями
Размер потока : 153 Мбайт (2%)
Заголовок : DVO
Язык : Russian
Default : Да
Forced : Нет
Аудио #2
Идентификатор : 3
Формат : AC-3
Формат/Информация : Audio Coding 3
Расширение режима : CM (complete main)
Параметр Endianness формата : Big
Идентификатор кодека : A_AC3
Продолжительность : 1 ч. 51 м.
Вид битрейта : Постоянный
Битрейт : 192 Кбит/сек
Каналы : 2 канала
Расположение каналов : Front: L R
Частота : 48,0 КГц
Битовая глубина : 16 бит
Метод сжатия : С потерями
Размер потока : 153 Мбайт (2%)
Заголовок : MVO
Язык : Russian
Default : Нет
Forced : Нет
Аудио #3
Идентификатор : 4
Формат : AC-3
Формат/Информация : Audio Coding 3
Расширение режима : CM (complete main)
Параметр Endianness формата : Big
Идентификатор кодека : A_AC3
Продолжительность : 1 ч. 51 м.
Вид битрейта : Постоянный
Битрейт : 192 Кбит/сек
Каналы : 2 канала
Расположение каналов : Front: L R
Частота : 48,0 КГц
Битовая глубина : 16 бит
Метод сжатия : С потерями
Размер потока : 153 Мбайт (2%)
Заголовок : AVO
Язык : Russian
Default : Нет
Forced : Нет
Аудио #4
Идентификатор : 5
Формат : AC-3
Формат/Информация : Audio Coding 3
Расширение режима : CM (complete main)
Параметр Endianness формата : Big
Идентификатор кодека : A_AC3
Продолжительность : 1 ч. 51 м.
Вид битрейта : Постоянный
Битрейт : 192 Кбит/сек
Каналы : 2 канала
Расположение каналов : Front: L R
Частота : 48,0 КГц
Битовая глубина : 16 бит
Метод сжатия : С потерями
Размер потока : 153 Мбайт (2%)
Заголовок : DVO
Язык : Ukrainian
Default : Нет
Forced : Нет
Аудио #5
Идентификатор : 6
Формат : AC-3
Формат/Информация : Audio Coding 3
Расширение режима : CM (complete main)
Параметр Endianness формата : Big
Идентификатор кодека : A_AC3
Продолжительность : 1 ч. 51 м.
Вид битрейта : Постоянный
Битрейт : 192 Кбит/сек
Каналы : 2 канала
Расположение каналов : Front: L R
Частота : 48,0 КГц
Битовая глубина : 16 бит
Метод сжатия : С потерями
Размер потока : 153 Мбайт (2%)
Язык : Chinese
Default : Нет
Forced : Нет
Текст #1
Идентификатор : 7
Формат : UTF-8
Идентификатор кодека : S_TEXT/UTF8
Идентификатор кодека/Информация : UTF-8 Plain Text
Язык : Russian
Default : Нет
Forced : Нет
Текст #2
Идентификатор : 8
Формат : UTF-8
Идентификатор кодека : S_TEXT/UTF8
Идентификатор кодека/Информация : UTF-8 Plain Text
Язык : English
Default : Нет
Forced : Нет
Меню
00:00:00.000 : en:Chapter 01
00:07:46.048 : en:Chapter 02
00:15:18.917 : en:Chapter 03
00:25:17.723 : en:Chapter 04
00:31:18.542 : en:Chapter 05
00:41:02.543 : en:Chapter 06
00:47:11.244 : en:Chapter 07
00:51:10.275 : en:Chapter 08
00:58:07.692 : en:Chapter 09
01:05:03.939 : en:Chapter 10
01:11:51.930 : en:Chapter 11
01:16:48.645 : en:Chapter 12
01:21:56.493 : en:Chapter 13
01:26:35.354 : en:Chapter 14
01:36:07.552 : en:Chapter 15
01:39:30.838 : en:Chapter 16
[Профиль] [ЛС]
Показать сообщения:    

Текущее время: Сегодня 08:44

Часовой пояс: GMT



Вы не можете начинать темы
Вы не можете отвечать на сообщения
Вы не можете редактировать свои сообщения
Вы не можете удалять свои сообщения
Вы не можете голосовать в опросах
Вы не можете прикреплять файлы к сообщениям
Вы не можете скачивать файлы