Пыль под Солнцем (Марионас Гедрис) [1977, Историко-революционный, VHSRip]

 
Автор Сообщение

reversefile ®

Пол:

Стаж: 4 года 5 месяцев

Сообщений: 842

Откуда: ReverseFile.org



Награды: Нет

Торрент-статистика

Создавать темы 25-Июл-2014 01:16

[Цитировать]

Пыль под Солнцем
Жанр: Историко-революционный
Год выпуска: 1977
Продолжительность: 01:32:26
Режиссёр: Марионас Гедрис
В ролях: Тимофей Спивак, Пётр Вельяминов, Александр Овчинников, Геннадий Юхтин, Владимир Заманский, Светлана Пенкина, Антанас Шурна, Владимир Носик, Владимир Новиков, Юрий Леонидов (II), Николай Бармин, Шавкат Газиев, Владас Багдонас, Маяк Керимов, Сигитас Рачкис, Витаутас Румшас
Описание: Фильм о подавлении мятежа в Симбирске, поднятого в 1918 году левым эсером Муравьевым, в то время командующим Восточным фронтом Красной Армии. В операции принимали участие глава симбирских большевиков Иосиф Варейкис и командующий Первой армией Михаил Тухачевский.
Релиз от
Рип: vova68
Семпл: http://multi-up.com/986201
Качество видео: VHSRip
Формат видео: AVI
Видео: 720x280 (2.57:1), 25 fps, DivX Codec 5.x or 6.x ~2033 kbps avg, 0.40 bit/pixel
Аудио: 48 kHz, MPEG Layer 3, 2 ch, ~128.00 kbps avg

MediaInfo

Общее
Полное имя : C:\Users\Александр\Desktop\Кино\Пыль под Солнцем (1977) VHSRip.avi
Формат : AVI
Формат/Информация : Audio Video Interleave
Размер файла : 1,40 Гбайт
Продолжительность : 1 ч. 32 м.
Общий поток : 2172 Кбит/сек
Программа кодирования : VirtualDubModRus 1.5.10.2 (build 2540/release)
Библиотека кодирования : VirtualDubMod build 2540/release
Видео
Идентификатор : 0
Формат : MPEG-4 Visual
Параметр BVOP формата : 1
Параметр QPel формата : Нет
Параметр GMC формата : Без точки перехода
Параметр матрицы формата : Default (H.263)
Режим смешивания : Сжатый битовый поток
Идентификатор кодека : DX50
Идентификатор кодека/Подсказка : DivX 5
Продолжительность : 1 ч. 32 м.
Битрейт : 2034 Кбит/сек
Ширина : 720 пикселей
Высота : 280 пикселей
Соотношение сторон : 5:4
Соотношение сторон в оригинале : 2,571
Частота кадров : 25,000 кадров/сек
Цветовое пространство : YUV
Субдискретизация насыщенности : 4:2:0
Битовая глубина : 8 бит
Тип развёртки : Прогрессивная
Метод сжатия : С потерями
Бит/(Пиксели*Кадры) : 0.404
Размер потока : 1,31 Гбайт (94%)
Библиотека кодирования : DivX 6.8.5 (UTC 2009-08-20)
Аудио
Идентификатор : 1
Формат : MPEG Audio
Версия формата : Version 1
Профиль формата : Layer 3
Режим : Joint stereo
Расширение режима : MS Stereo
Идентификатор кодека : 55
Идентификатор кодека/Подсказка : MP3
Продолжительность : 1 ч. 32 м.
Вид битрейта : Постоянный
Битрейт : 128 Кбит/сек
Каналы : 2 канала
Частота : 48,0 КГц
Метод сжатия : С потерями
Размер потока : 84,6 Мбайт (6%)
Выравнивание : Разделение по промежуткам
Продолжительность промежутка : 40 мс. (1,00 видеокадр)
Время предзагрузки промежутка : 500 мс.

Скриншоты

[Профиль] [ЛС]

Создавать темы 06-Авг-2015 22:04 (спустя 1 год)

Топик был перенесен из форума Кино СССР в форум Кино СССР
sergej644
 
Кто просматривает тему:

Показать сообщения:    

Текущее время: Сегодня 07:06

Часовой пояс: GMT



Вы не можете начинать темы
Вы не можете отвечать на сообщения
Вы не можете редактировать свои сообщения
Вы не можете удалять свои сообщения
Вы не можете голосовать в опросах
Вы не можете прикреплять файлы к сообщениям
Вы не можете скачивать файлы