Пылесос / Tolmuimeja (Аво Пайстик / Avo Paistik) [1978, мультфильм, TVRip]

 
Автор Сообщение

TorrentFilm ®

Пол:

Стаж: 1 год 11 месяцев

Сообщений: 7741



Награды: Нет

Торрент-статистика

Создавать темы 20-Сен-2015 00:09

[Цитировать]

Пылесос / Tolmuimeja
Страна: СССР (Эстонская республика)
Жанр: мультфильм
Продолжительность: 00:09:23
Год выпуска: 1978
Перевод: не требуется
Русские субтитры: нет
Режиссёр: Аво Пайстик / Avo Paistik
Описание: Парень купил новый пылесос, который слишком уж рьяно начал засасывать мусор, а отключаться не хотел. Пока парень ходил за инструментами, пылесос, самостоятельно передвигаясь и увеличиваясь в размерах, уже всосал почти всё, что встретилось на пути...
Качество: TVRip
Формат: AVI
Видео: 1443 kbps, 672х496 (4:3), 25.000 fps, MPEG-4 Visual (XviD)
Аудио: 128 kbps, 48.0 kHz, 2 channels, MPEG Audio (MP3)
Субтитры: отсутствуют

Подробные технические данные

GeneralComplete name : Tolmuimeja (1978).aviFormat : AVIFormat/Info : Audio Video InterleaveFile size : 106 MiBDuration : 9mn 23sOverall bit rate : 1 584 KbpsWriting application : TMPGEnc Video Mastering Works 5 Version. 5.0.5.32Writing library : TMPGEnc Video Mastering Works 5 Version. 5.0.5.32
VideoID : 0Format : MPEG-4 VisualFormat profile : Advanced Simple@L5Format settings, BVOP : 2Format settings, QPel : NoFormat settings, GMC : No warppointsFormat settings, Matrix : Default (MPEG)Codec ID : XVIDCodec ID/Hint : XviDDuration : 9mn 23sBit rate : 1 443 KbpsWidth : 672 pixelsHeight : 496 pixelsDisplay aspect ratio : 4:3Frame rate : 25.000 fpsColor space : YUVChroma subsampling : 4:2:0Bit depth : 8 bitsScan type : ProgressiveCompression mode : LossyBits/(Pixel*Frame) : 0.173Stream size : 97.0 MiB (91%)Writing library : XviD 64
AudioID : 1Format : MPEG AudioFormat version : Version 1Format profile : Layer 3Mode : Joint stereoMode extension : MS StereoCodec ID : 55Codec ID/Hint : MP3Duration : 9mn 23sBit rate mode : ConstantBit rate : 128 KbpsChannel(s) : 2 channelsSampling rate : 48.0 KHzCompression mode : LossyStream size : 8.60 MiB (8%)Alignment : Aligned on interleavesInterleave, duration : 40 ms (1.00 video frame)Interleave, preload duration : 384 ms

Скриншоты

[Профиль] [ЛС]
Кто просматривает тему:

Показать сообщения:    

Текущее время: Сегодня 11:52

Часовой пояс: GMT



Вы не можете начинать темы
Вы не можете отвечать на сообщения
Вы не можете редактировать свои сообщения
Вы не можете удалять свои сообщения
Вы не можете голосовать в опросах
Вы не можете прикреплять файлы к сообщениям
Вы не можете скачивать файлы