Пылающие мертвецы / The Burning Dead (Рене Перез / Rene Perez) [2015, США, боевик, ужасы, WEB-DLRip] VO (МЕГАПЫХАРЬ) + Original Eng

 
Автор Сообщение

TorrentFilm ®

Пол:

Стаж: 1 год 11 месяцев

Сообщений: 7741



Награды: Нет

Торрент-статистика

Создавать темы 16-Апр-2015 00:02

[Цитировать]

Пылающие мертвецы / The Burning Dead
Страна: США
Жанр: боевик, ужасы
Год выпуска: 2015
Продолжительность: 01:22:20
Перевод: Одноголосый закадровый МЕГАПЫХАРЬ
Cубтитры: нет
Оригинальная аудиодорожка: английский
Режиссер: Рене Перез / Rene Perez
В ролях: Дэнни Трехо, Николь Камминс, Джулия Леман, Дженни Лин, Роберт Амстлер
Описание: Шериф должен спасти семейство, попавшее в западню из-за начавшегося извержения вулкана. Однако ему предстоит бороться не только с силами природы, но и с вырвавшимися из огненной бездны наполненными огненной лавой мертвецами.
Сэмпл: http://multi-up.com/1040980
Качество видео: WEB-DLRip
Формат видео: AVI
Видео: Xvid 720x400 23.98fps 1 981 Kbps
Аудио: Dolby AC3 48000Hz stereo 192kbps
Аудио 2: Dolby AC3 48000Hz stereo 192kbps

MediaInfo

Format : AVI
Format/Info : Audio Video Interleave
File size : 1.37 GiB
Duration : 1h 22mn
Overall bit rate : 2 380 Kbps
Writing application : VirtualDubMod 1.5.10.3 | www.virtualdub-fr.org || (build 2550/release)
Writing library : VirtualDubMod build 2550/release
Video
ID : 0
Format : MPEG-4 Visual
Format profile : Advanced Simple@L5
Format settings, BVOP : Yes
Format settings, QPel : No
Format settings, GMC : No warppoints
Format settings, Matrix : Custom
Codec ID : XVID
Codec ID/Hint : XviD
Duration : 1h 22mn
Bit rate : 1 981 Kbps
Width : 720 pixels
Height : 400 pixels
Display aspect ratio : 16:9
Frame rate : 23.976 fps
Resolution : 8 bits
Colorimetry : 4:2:0
Scan type : Progressive
Bits/(Pixel*Frame) : 0.287
Stream size : 1.14 GiB (83%)
Writing library : XviD 73
Audio #1
ID : 1
Format : AC-3
Format/Info : Audio Coding 3
Codec ID : 2000
Duration : 1h 22mn
Bit rate mode : Constant
Bit rate : 192 Kbps
Channel(s) : 2 channels
Channel positions : L R
Sampling rate : 48.0 KHz
Video delay : 25ms
Stream size : 113 MiB (8%)
Alignment : Split accross interleaves
Interleave, duration : 42 ms (1.00 video frame)
Interleave, preload duration : 500 ms
Audio #2
ID : 2
Format : AC-3
Format/Info : Audio Coding 3
Codec ID : 2000
Duration : 1h 22mn
Bit rate mode : Constant
Bit rate : 192 Kbps
Channel(s) : 2 channels
Channel positions : L R
Sampling rate : 48.0 KHz
Video delay : 26ms
Stream size : 113 MiB (8%)
Alignment : Split accross interleaves
Interleave, duration : 42 ms (1.00 video frame)
Interleave, preload duration : 500 ms

Скриншот c названием фильма

Скриншоты

]
[Профиль] [ЛС]
Показать сообщения:    

Текущее время: Сегодня 20:03

Часовой пояс: GMT



Вы не можете начинать темы
Вы не можете отвечать на сообщения
Вы не можете редактировать свои сообщения
Вы не можете удалять свои сообщения
Вы не можете голосовать в опросах
Вы не можете прикреплять файлы к сообщениям
Вы не можете скачивать файлы