Пчёлка Майя / Maya The Bee – Movie (2014) BDRemux 1080p | iTunes

 
Автор Сообщение

sergej644 ®

Пол:

Стаж: 4 года 11 месяцев

Сообщений: 6046

Откуда: Soviet Union



Награды: Нет

Торрент-статистика

Создавать темы 18-Янв-2015 02:23

[Цитировать]

Информация о фильме
Название: Пчёлка Майя
Оригинальное название: Maya The Bee – Movie
Год выхода: 2014
Жанр: мультфильм, фэнтези, приключения
Режиссер: Алекс Стадерманн
В ролях: Нина Шаттон, Коди Смит-МакФи, Ноа Тейлор, Джеки Уивер, Ричард Роксбург, Мириам Маргулис, Джастин Кларк, Энди МакФи, Косма Шива Хаген, Коко Джек Гиллис
О фильме: Легендарная пчелка доросла до большого экрана. В улье на свет появилась пчелка, которая выделяется из общей массы: она озорная, любопытная, не может держать рот на замке и постоянно рвется на поиски приключений. И вот, её любознательность довела до того, что она была изгнана из улья. Поэтому Майя пытается найти свое место среди других насекомых...

Страна: Австралия, Германия / Buzz Studios, Fish Blowing Bubbles, Flying Bark Productions
Продолжительность: 01:28:10
Перевод: Профессиональный (полное дублирование) - iTunes
Файл
Качество: BDRemux 1080p
Формат: MKV
Видео: MPEG-4 AVC / 29289 Кбит/сек / 23.976 кадра/сек / 16:9 / High Profile 4.1
Аудио 1: AC3, 6 каналов, 384 Кбит/сек | Русский
Аудио 2: AC3, 6 каналов, 640 Кбит/сек | Испанский
Аудио 3: DTS-HD MA / 5.1 / 48 КГц / 1329 Кбит/сек / 16-бит (DTS Core: 5.1 / 48 КГц / 768 Кбит/сек / 16-бит) | Испанский
Навигация по главам: Есть

MediaInfo:

Общее
Уникальный идентификатор : 243733137093063057060682475542815912599 (0xB75D4B728DAEF87891AB25D6DD7F3297)
Полное имя : Maya The Bee – Movie. (2014) BDRemux 1080p.mkv
Формат : Matroska
Версия формата : Version 2
Размер файла : 19,7 Гбайт
Продолжительность : 1 ч. 28 м.
Режим общего битрейта : Переменный
Общий поток : 31,9 Мбит/сек
Название фильма : Maya The Bee – Movie. 2014
Дата кодирования : UTC 2015-01-17 20:19:41
Программа кодирования : mkvmerge v5.8.0 ('No Sleep / Pillow') built on Sep 2 2012 15:37:04
Библиотека кодирования : libebml v1.2.3 + libmatroska v1.3.0
Видео
Идентификатор : 1
Формат : AVC
Формат/Информация : Advanced Video Codec
Профиль формата : High@L4.1
Параметр CABAC формата : Да
Параметр ReFrames формата : 4 кадра
Идентификатор кодека : V_MPEG4/ISO/AVC
Продолжительность : 1 ч. 28 м.
Вид битрейта : Переменный
Максимальный битрейт : 35,0 Мбит/сек
Ширина : 1920 пикселей
Высота : 1080 пикселей
Соотношение сторон : 16:9
Режим частоты кадров : Постоянный
Частота кадров : 23,976 кадра/сек
Стандарт вещания : NTSC
Цветовое пространство : YUV
Субдискретизация насыщенности : 4:2:0
Битовая глубина : 8 бит
Тип развёртки : Прогрессивная
Заголовок : BuR
Язык : Spanish
Default : Да
Forced : Нет
Основные цвета : BT.709
Характеристики трансфера : BT.709
Коэффициенты матрицы : BT.709
Аудио #1
Идентификатор : 2
Формат : AC-3
Формат/Информация : Audio Coding 3
Расширение режима : CM (complete main)
Параметр Endianness формата : Big
Идентификатор кодека : A_AC3
Продолжительность : 1 ч. 28 м.
Вид битрейта : Постоянный
Битрейт : 384 Кбит/сек
Каналы : 6 каналов
Расположение каналов : Front: L C R, Side: L R, LFE
Частота : 48,0 КГц
Битовая глубина : 16 бит
Метод сжатия : С потерями
Размер потока : 242 Мбайт (1%)
Заголовок : D | iTunes
Язык : Russian
Default : Да
Forced : Нет
Аудио #2
Идентификатор : 3
Формат : AC-3
Формат/Информация : Audio Coding 3
Расширение режима : CM (complete main)
Параметр Endianness формата : Big
Идентификатор кодека : A_AC3
Продолжительность : 1 ч. 28 м.
Вид битрейта : Постоянный
Битрейт : 640 Кбит/сек
Каналы : 6 каналов
Расположение каналов : Front: L C R, Side: L R, LFE
Частота : 48,0 КГц
Битовая глубина : 16 бит
Метод сжатия : С потерями
Размер потока : 404 Мбайт (2%)
Заголовок : Original
Язык : Spanish
Default : Нет
Forced : Нет
Аудио #3
Идентификатор : 4
Формат : DTS
Формат/Информация : Digital Theater Systems
Профиль формата : MA / Core
Режим : 16
Параметр Endianness формата : Big
Идентификатор кодека : A_DTS
Продолжительность : 1 ч. 28 м.
Вид битрейта : Переменный
Битрейт : Неизвестно / 768 Кбит/сек
Каналы : 6 каналов
Расположение каналов : Front: L C R, Side: L R, LFE
Частота : 48,0 КГц
Битовая глубина : 16 бит
Метод сжатия : Без потерь / Lossy
Заголовок : DTS-HD MA / 5.1 / 48 kHz / 1329 kbps / 16-bit (DTS Core: 5.1 / 48 kHz / 768 kbps / 16-bit)
Язык : Spanish
Default : Нет
Forced : Нет
Меню
00:00:00.000 : en:00:00:00.000
00:00:26.318 : en:00:00:26.318
00:08:05.985 : en:00:08:05.985
00:13:21.259 : en:00:13:21.259
00:15:45.862 : en:00:15:45.862
00:23:21.483 : en:00:23:21.483
00:27:33.944 : en:00:27:33.944
00:36:37.529 : en:00:36:37.529
00:39:46.676 : en:00:39:46.676
00:49:49.320 : en:00:49:49.320
01:00:39.761 : en:01:00:39.761
01:09:23.618 : en:01:09:23.618
01:16:40.596 : en:01:16:40.596

Скриншоты

Релиз от:
[Профиль] [ЛС]
Показать сообщения:    

Текущее время: Сегодня 15:37

Часовой пояс: GMT



Вы не можете начинать темы
Вы не можете отвечать на сообщения
Вы не можете редактировать свои сообщения
Вы не можете удалять свои сообщения
Вы не можете голосовать в опросах
Вы не можете прикреплять файлы к сообщениям
Вы не можете скачивать файлы