Путь (2009) HDRip от Шкипер

 
Автор Сообщение

Шкипер ®

Пол:

Стаж: 1 год 8 месяцев

Сообщений: 53



Награды: Нет

Торрент-статистика

Создавать темы 17-Июл-2016 04:25

[Цитировать]

Информация о фильме
Название: Путь
Год выхода: 2009
Жанр: Боевик, приключения
Режиссер: Владимир Пасичник
В ролях: Дмитрий Носов, Олег Тактаров, Иван Кокорин, Николай Валуев, Майкл Мэдсен, Ирина Чащина, Дэвид Буено, Елена Нелидова, Ренат Лайшев, Александр Баранов
О фильме:
Масштабный приключенческий боевик, действие которого происходит не только в самых неожиданных точках земного шара, но и в разные эпохи. В центре сюжета — история Алексея, молодого человека эпохи лихих 90-х, когда альтернативой нищенскому существованию были криминал и наркотики. Но вместо колонии Алексей попадает в «Школу самбо», где из трудных подростков делают чемпионов. Эта закалка пригодится Алексею в армии и в спецподразделении по борьбе против международного терроризма и наркомафии. Группа Z, которую возглавляет Алекс, получает задание уничтожить базу террористов и выяснить имя предателя, сообщившего им коды доступа к системе слежения с военных спутников.

Страна: Россия
Студия: Way Film Company
Продолжительность: 01:51:36
Перевод: Не требуется (Лицензия)
Файл
Кодек: XviD
Качество: HDRip
Видео: 608x336 (1.80:1), 23.976 fps, XviD build 73 ~797 kbps avg, 0.16 bit/pixel
Звук: 48 kHz, MPEG Layer 3, 2 ch, ~128.00 kbps avg
Субтитры: Отсутствуют
Семпл

MI

General
Complete name : D:Изготовление рипаPut.2009.HDRip by shkiper.avi
Format : AVI
Format/Info : Audio Video Interleave
File size : 746 MiB
Duration : 1h 51mn
Overall bit rate : 935 Kbps
Writing application : VirtualDubMod 1.5.10.3 | www.virtualdub-fr.org || (build 2550/release)
Writing library : VirtualDubMod build 2550/release
Video
ID : 0
Format : MPEG-4 Visual
Format profile : Advanced Simple@L5
Format settings, BVOP : 1
Format settings, QPel : No
Format settings, GMC : No warppoints
Format settings, Matrix : Custom
Codec ID : XVID
Codec ID/Hint : XviD
Duration : 1h 51mn
Bit rate : 798 Kbps
Width : 608 pixels
Height : 336 pixels
Display aspect ratio : 16:9
Frame rate : 23.976 (23976/1000) fps
Color space : YUV
Chroma subsampling : 4:2:0
Bit depth : 8 bits
Scan type : Progressive
Compression mode : Lossy
Bits/(Pixel*Frame) : 0.163
Stream size : 637 MiB (85%)
Writing library : XviD 73
Audio
ID : 1
Format : MPEG Audio
Format version : Version 1
Format profile : Layer 3
Codec ID : 55
Codec ID/Hint : MP3
Duration : 1h 51mn
Bit rate mode : Constant
Bit rate : 128 Kbps
Channel(s) : 2 channels
Sampling rate : 48.0 KHz
Compression mode : Lossy
Stream size : 102 MiB (14%)
Alignment : Aligned on interleaves
Interleave, duration : 42 ms (1.00 video frame)
Interleave, preload duratio : 504 ms
Writing library : LAME3.99r
Encoding settings : -m s -V 4 -q 2 -lowpass 17 -b 128

Скриншоты

Релиз от:
[Профиль] [ЛС]
Показать сообщения:    

Текущее время: Сегодня 08:19

Часовой пояс: GMT



Вы не можете начинать темы
Вы не можете отвечать на сообщения
Вы не можете редактировать свои сообщения
Вы не можете удалять свои сообщения
Вы не можете голосовать в опросах
Вы не можете прикреплять файлы к сообщениям
Вы не можете скачивать файлы