Путь нечестивых / Way of the Wicked (Кевин Каррауэй / Kevin Carraway) [2014, США, триллер, мистика, детектив, HDRip] DVO (2D)

 
Автор Сообщение

reversefile ®

Пол:

Стаж: 4 года 5 месяцев

Сообщений: 842

Откуда: ReverseFile.org



Награды: Нет

Торрент-статистика

Создавать темы 13-Авг-2014 01:01

[Цитировать]

Путь нечестивых / Way of the Wicked
Страна: США
Жанр: триллер, мистика, детектив
Год выпуска: 2014
Продолжительность: 01:32:00
Перевод: Любительский (двухголосый закадровый) 2D
Перевод на русский язык Antonio, работа со звуком Гуннлауг
Cубтитры: нет
Оригинальная аудиодорожка: нет
Режиссер: Кевин Каррауэй / Kevin Carraway
В ролях: Винни Джонс, Кристиан Слэйтер, Эмили Теннант, Джейк Крокер, Арен Бучольц, Мэттью Роберт Келли, Бриттни Уилсон, Джедидайя Гудакр, Джиллиан Фергей, Крис Шилдс
Описание: После жестоких и беспощадных убийств, которые случились в небольшом городке, изолированном от цивилизации, отец Генри рассказывает местному следователю свою версию случившегося. По его мнению, ко всем преступлениям имеет отношение один подросток, который появился в их городе совсем недавно. Отец уверен, что парень обладает сверхъестественными силами, его душа подчиняется властям тьмы.

Сэмпл: http://multi-up.com/986750
Качество видео: HDRip
Формат видео: AVI
Видео: Xvid 656x368 23.98fps 935Kbps
Аудио: Dolby AC3 48000Hz stereo 192Kbps

MediaInfo

General
Complete name : D:\TORRENTS\Путь нечестивых.avi
Format : AVI
Format/Info : Audio Video Interleave
File size : 749 MiB
Duration : 1h 32mn
Overall bit rate : 1 137 Kbps
Video
ID : 0
Format : MPEG-4 Visual
Format profile : Advanced Simple@L5
Format settings, BVOP : 1
Format settings, QPel : No
Format settings, GMC : No warppoints
Format settings, Matrix : Custom
Codec ID : XVID
Codec ID/Hint : XviD
Duration : 1h 32mn
Bit rate : 936 Kbps
Width : 656 pixels
Height : 368 pixels
Display aspect ratio : 16:9
Frame rate : 23.976 fps
Color space : YUV
Chroma subsampling : 4:2:0
Bit depth : 8 bits
Scan type : Progressive
Compression mode : Lossy
Bits/(Pixel*Frame) : 0.162
Stream size : 616 MiB (82%)
Writing library : XviD 64
Audio
ID : 1
Format : AC-3
Format/Info : Audio Coding 3
Mode extension : CM (complete main)
Format settings, Endianness : Big
Codec ID : 2000
Duration : 1h 32mn
Source duration : 1h 32mn
Bit rate mode : Constant
Bit rate : 192 Kbps
Channel(s) : 2 channels
Channel positions : Front: L R
Sampling rate : 48.0 KHz
Bit depth : 16 bits
Compression mode : Lossy
Stream size : 126 MiB (17%)
Alignment : Aligned on interleaves
Interleave, duration : 42 ms (1.00 video frame)

Скриншот c названием фильма

Скриншоты

[Профиль] [ЛС]
Кто просматривает тему:

Показать сообщения:    

Текущее время: Сегодня 08:34

Часовой пояс: GMT



Вы не можете начинать темы
Вы не можете отвечать на сообщения
Вы не можете редактировать свои сообщения
Вы не можете удалять свои сообщения
Вы не можете голосовать в опросах
Вы не можете прикреплять файлы к сообщениям
Вы не можете скачивать файлы