Путь на юг / Southbound (2015) BDRemux 1080p от ExKinoRay | L1, A

 
Автор Сообщение

Russian Mafia ®

Пол:

Стаж: 1 год 8 месяцев

Сообщений: 4253



Награды: 10 (Подробнее)

Mega Seeder 2 (Количество: 1) Mega Seeder 3 (Количество: 1) Mega Seeder 4 (Количество: 1)
Торрент-статистика

Создавать темы 09-Авг-2016 04:26

[Цитировать]

Информация о фильме
Название: Путь на юг
Оригинальное название: Southbound
Год выхода: 2015
Жанр: Ужасы, фантастика, триллер
Режиссер: Роксанна Бенжамин, Дэвид Брукнер, Патрик Хорват
В ролях: Кейт Бихан, Мэттью Беттинелли, Сьюзэн Бурк, Зои Купер, Джералд Дауни, Карла Дродж, Ларри Фессенден, Дэна Гулд, Хасси Харрисон, Дэйв Джонсон
О фильме:
Волею судьбы или какой-то другой неведомой силы на шоссе, ведущем на юг, оказываются совершенно разные люди. Все они едут по этой дороге с определенной целью, и у каждого из них имеются свои скелеты в шкафу. Но во время поездки все они столкнуться с непреодолимым кошмаром, который заставит их всерьез задуматься о содеянных поступках..

Страна: США
Студия: Willowbrook Regent Films
Продолжительность: 01:29:03
Перевод: Любительский одноголосый (закадровый) | Васька Куролесов (по переводу Enigma)
Авторский одноголосый (закадровый) | Дмитрий Есарев
Файл
Кодек: MPEG-4
Качество: BDRemux 1080p
Видео: 1920x1080, 25.6 Mbit/s, 23.976 fps
Звук:
Аудио #01: 48 kHz, AC3, 5.1, 448 Kbps | Любительский одноголосый (закадровый), Васька Куролесов (по переводу Enigma) |
Аудио #02: 48 kHz, AC3, 5.1, 448 Kbps | Авторский одноголосый (закадровый), Дмитрий Есарев [цензура] |
Аудио #03: 48 kHz, AC3, 5.1, 448 Kbps | Авторский одноголосый (закадровый), Дмитрий Есарев [без цензуры] |
Аудио #04: 48 kHz, DTS-HD MA, 5.1, 3650 kbps | Оригинал |
Субтитры: Английские

MI

General
Unique ID : 227671608298406414487833428250915620292 (0xAB47F4F03F18CBF6A57282D6F595C5C4)
Complete name : G:VideoSouthbound.2015.BDREMUX.1080p.ExKinoRay.mkv
Format : Matroska
Format version : Version 4 / Version 2
File size : 19.1 GiB
Duration : 1h 29mn
Overall bit rate mode : Variable
Overall bit rate : 30.6 Mbps
Movie name : Southbound.2015.BDREMUX.1080p.ExKinoRay
Encoded date : UTC 2016-08-09 03:37:39
Writing application : mkvmerge v8.3.0 ('Over the Horizon') 64bit
Writing library : libebml v1.3.1 + libmatroska v1.4.2
Video
ID : 1
Format : AVC
Format/Info : Advanced Video Codec
Format profile : High@L4.1
Format settings, CABAC : Yes
Format settings, ReFrames : 3 frames
Format settings, GOP : M=3, N=12
Codec ID : V_MPEG4/ISO/AVC
Duration : 1h 29mn
Bit rate mode : Variable
Bit rate : 25.6 Mbps
Maximum bit rate : 35.0 Mbps
Width : 1 920 pixels
Height : 1 080 pixels
Display aspect ratio : 16:9
Frame rate mode : Constant
Frame rate : 23.976 (24000/1001) fps
Standard : NTSC
Color space : YUV
Chroma subsampling : 4:2:0
Bit depth : 8 bits
Scan type : Progressive
Bits/(Pixel*Frame) : 0.515
Stream size : 15.9 GiB (84%)
Language : English
Default : Yes
Forced : No
Color range : Limited
Color primaries : BT.709
Transfer characteristics : BT.709
Matrix coefficients : BT.709
Audio #1
ID : 2
Format : AC-3
Format/Info : Audio Coding 3
Mode extension : CM (complete main)
Format settings, Endianness : Big
Codec ID : A_AC3
Duration : 1h 29mn
Bit rate mode : Constant
Bit rate : 448 Kbps
Channel(s) : 6 channels
Channel positions : Front: L C R, Side: L R, LFE
Sampling rate : 48.0 KHz
Frame rate : 31.250 fps (1536 spf)
Compression mode : Lossy
Delay relative to video : 5s 500ms
Stream size : 285 MiB (1%)
Title : VO (Vasjka Kyrolesov) [Enigma translation]
Language : Russian
Default : Yes
Forced : No
Audio #2
ID : 3
Format : AC-3
Format/Info : Audio Coding 3
Mode extension : CM (complete main)
Format settings, Endianness : Big
Codec ID : A_AC3
Duration : 1h 29mn
Bit rate mode : Constant
Bit rate : 448 Kbps
Channel(s) : 6 channels
Channel positions : Front: L C R, Side: L R, LFE
Sampling rate : 48.0 KHz
Frame rate : 31.250 fps (1536 spf)
Compression mode : Lossy
Delay relative to video : 5s 500ms
Stream size : 285 MiB (1%)
Title : AVO [Esarev] цензура
Language : Russian
Default : No
Forced : No
Audio #3
ID : 4
Format : AC-3
Format/Info : Audio Coding 3
Mode extension : CM (complete main)
Format settings, Endianness : Big
Codec ID : A_AC3
Duration : 1h 29mn
Bit rate mode : Constant
Bit rate : 448 Kbps
Channel(s) : 6 channels
Channel positions : Front: L C R, Side: L R, LFE
Sampling rate : 48.0 KHz
Frame rate : 31.250 fps (1536 spf)
Compression mode : Lossy
Delay relative to video : 5s 500ms
Stream size : 285 MiB (1%)
Title : AVO [Esarev] без.цензуры
Language : Russian
Default : No
Forced : No
Audio #4
ID : 5
Format : DTS
Format/Info : Digital Theater Systems
Format profile : MA / Core
Mode : 16
Format settings, Endianness : Big
Codec ID : A_DTS
Duration : 1h 29mn
Bit rate mode : Variable / Constant
Bit rate : 3 650 Kbps / 1 509 Kbps
Channel(s) : 6 channels
Channel positions : Front: L C R, Side: L R, LFE
Sampling rate : 48.0 KHz
Frame rate : 93.750 fps (512 spf)
Bit depth : 24 bits
Compression mode : Lossless / Lossy
Stream size : 2.27 GiB (12%)
Title : Original
Language : English
Default : No
Forced : No
Text
ID : 6
Format : UTF-8
Codec ID : S_TEXT/UTF8
Codec ID/Info : UTF-8 Plain Text
Duration : 1h 25mn
Bit rate : 41 bps
Count of elements : 868
Stream size : 26.2 KiB (0%)
Title : Full
Language : English
Default : No
Forced : No
Menu
00:00:00.000 : en:00:00:00.000
00:07:20.857 : en:00:07:20.857
00:15:01.901 : en:00:15:01.901
00:21:37.713 : en:00:21:37.713
00:29:04.743 : en:00:29:04.743
00:36:01.159 : en:00:36:01.159
00:40:06.821 : en:00:40:06.821
00:50:18.641 : en:00:50:18.641
00:55:06.720 : en:00:55:06.720
01:06:15.972 : en:01:06:15.972
01:11:54.310 : en:01:11:54.310
01:25:51.772 : en:01:25:51.772

Скриншоты

Релиз от: Автор релиза:
Автор перевода:
[Профиль] [ЛС]
Кто просматривает тему:

Показать сообщения:    

Текущее время: Сегодня 16:53

Часовой пояс: GMT



Вы не можете начинать темы
Вы не можете отвечать на сообщения
Вы не можете редактировать свои сообщения
Вы не можете удалять свои сообщения
Вы не можете голосовать в опросах
Вы не можете прикреплять файлы к сообщениям
Вы не можете скачивать файлы