Путь Карлито / Carlito's Way (1993) BDRip 720p от NNNB | P, P2, A

 
Автор Сообщение

Russian Mafia ®

Пол:

Стаж: 1 год 8 месяцев

Сообщений: 4253



Награды: 10 (Подробнее)

Top Releaser 4 (Количество: 1) Mega Seeder 5 (Количество: 1) Mega Seeder 1 (Количество: 1)
Торрент-статистика

Создавать темы 13-Окт-2016 07:29

[Цитировать]

Путь Карлито / Carlito's Way
Русское название: Путь Карлито
Оригинальное название: Carlito's Way
Год выпуска: 1993
Жанр: драма, криминал
Выпущено: США
Режиссер: Брайан Де Пальма
В ролях: Аль Пачино , Шон Пенн , Пенелопа Энн Миллер , Джон Легуизамо , Ингрид Роджерс , Луис Гусман , Джеймс Ребхорн , Джозеф Сираво , Вигго Мортенсен , Ричард Форонджи , Хорхе Порсель , Фрэнк Минуччи
Перевод: Профессиональный многоголосый, Профессиональный двухголосый, Авторский одноголосый

Сюжет фильма:
70-е годы. Крупный наркоделец Карлито Бриганте вышел из тюрьмы, где отбыл пять лет. Теперь, возвращаясь в испанский квартал Нью-Йорка к любимой женщине, он хочет все бросить и начать честную жизнь. Однако криминальное прошлое и просьба близкого друга, адвоката Клейнфилда, ввязавшегося в опасную авантюру, неудержимо тянут Карлито в пучину гибели...

Качество: BDRip 720p
Формат: AVC (библиотека кодирования x.264)
Контейнер (Расширение): MKV
Видео: 1280x544, 6164 Кбит/сек, 23,976 кадр/сек, 0,369 Бит/[Пиксели*Кадры]
Аудио №1: русский / AC3 / 5.1 / 48 kHz / 448 kbps / 16 bit |Профессиональный многоголосый, R5|
Аудио №2: русский / AC3 / 5.1 / 48 kHz / 448 kbps / 16 bit |Профессиональный многоголосый, Позитив Мультимедиа|
Аудио №3: русский / AC3 / 5.1 / 48 kHz / 640 kbps / 16 bit |Профессиональный двухголосый, Пётр Гланц и Инна Королева|
Аудио №4: русский / AC3 / 2.0 / 48 kHz / 192 kbps / 16 bit |Профессиональный двухголосый, НТВ|
Аудио №5: русский / AC3 / 5.1 / 48 kHz / 640 kbps / 16 bit |Авторский одноголосый, Андрей Гаврилов|
Аудио №6: русский / AC3 / 5.1 / 48 kHz / 640 kbps / 16 bit |Авторский одноголосый, Юрий Живов|
Аудио №7: русский / AC3 / 5.1 / 48 kHz / 448 kbps / 16 bit |Авторский одноголосый, Леонид Володарский|
Аудио №8: русский / AC3 / 5.1 / 48 kHz / 448 kbps / 16 bit |Авторский одноголосый, Денис Строев|
Аудио №9: русский / AC3 / 5.1 / 48 kHz / 448 kbps / 16 bit |Авторский одноголосый, Дмитрий Штамп (sf@irat)|
Аудио №10: русский / AC3 / 5.1 / 48 kHz / 640 kbps / 16 bit |Авторский одноголосый, Евгений Гаевский|
Аудио №11: английский / AC3 / 5.1 / 48 kHz / 640 kbps / 16 bit
Субтитры: Русские (2 вида), Английские (полные, SDH).
Навигация по главам(Чаптеры): есть (подписанные)
Продолжительность: 02:24:10Автор рипа: Сообщество:

MediaInfo

Format : Matroska
Format version : Version 2
File size : 11.9 GiB
Duration : 2h 24mn
Overall bit rate : 11.8 Mbps
Movie name : Carlito's Way.(1993).BDRip.720p.[denis100]
Encoded date : UTC 2016-10-12 08:37:12
Writing application : mkvmerge v5.8.0 ('No Sleep / Pillow') built on Sep 2 2012 15:37:04
Writing library : libebml v1.2.3 + libmatroska v1.3.0
Video
ID : 1
Format : AVC
Format/Info : Advanced Video Codec
Format profile : High@L4.1
Format settings, CABAC : Yes
Format settings, ReFrames : 11 frames
Codec ID : V_MPEG4/ISO/AVC
Duration : 2h 24mn
Bit rate : 6 164 Kbps
Width : 1 280 pixels
Height : 544 pixels
Display aspect ratio : 2.35:1
Frame rate mode : Constant
Frame rate : 23.976 fps
Color space : YUV
Chroma subsampling : 4:2:0
Bit depth : 8 bits
Scan type : Progressive
Bits/(Pixel*Frame) : 0.369
Stream size : 5.97 GiB (50%)
Title : Carlito's Way.(1993).BDRip.720p.[denis100]
Writing library : x264 core 148 r2692 64f4e24
Encoding settings : cabac=1 / ref=11 / deblock=1:-3:-3 / analyse=0x3:0x133 / me=umh / subme=11 / psy=1 / psy_rd=1.00:0.10 / mixed_ref=1 / me_range=48 / chroma_me=1 / trellis=2 / 8x8dct=1 / cqm=0 / deadzone=21,11 / fast_pskip=0 / chroma_qp_offset=-3 / threads=6 / lookahead_threads=1 / sliced_threads=0 / nr=0 / decimate=1 / interlaced=0 / bluray_compat=0 / constrained_intra=0 / bframes=11 / b_pyramid=2 / b_adapt=2 / b_bias=0 / direct=3 / weightb=1 / open_gop=0 / weightp=2 / keyint=240 / keyint_min=23 / scenecut=40 / intra_refresh=0 / rc=2pass / mbtree=0 / bitrate=6164 / ratetol=1.0 / qcomp=0.60 / qpmin=0 / qpmax=69 / qpstep=4 / cplxblur=20.0 / qblur=0.5 / ip_ratio=1.40 / pb_ratio=1.30 / aq=2:0.80
Language : English
Default : Yes
Forced : No
Audio #1
ID : 2
Format : AC-3
Format/Info : Audio Coding 3
Mode extension : CM (complete main)
Format settings, Endianness : Big
Codec ID : A_AC3
Duration : 2h 24mn
Bit rate mode : Constant
Bit rate : 448 Kbps
Channel(s) : 6 channels
Channel positions : Front: L C R, Side: L R, LFE
Sampling rate : 48.0 KHz
Compression mode : Lossy
Stream size : 462 MiB (4%)
Title : MVO R5
Language : Russian
Default : Yes
Forced : No
Audio #2
ID : 3
Format : AC-3
Format/Info : Audio Coding 3
Mode extension : CM (complete main)
Format settings, Endianness : Big
Codec ID : A_AC3
Duration : 2h 24mn
Bit rate mode : Constant
Bit rate : 448 Kbps
Channel(s) : 6 channels
Channel positions : Front: L C R, Side: L R, LFE
Sampling rate : 48.0 KHz
Compression mode : Lossy
Stream size : 462 MiB (4%)
Title : MVO (Позитив Мультимедиа)
Language : Russian
Default : No
Forced : No
Audio #3
ID : 4
Format : AC-3
Format/Info : Audio Coding 3
Mode extension : CM (complete main)
Format settings, Endianness : Big
Codec ID : A_AC3
Duration : 2h 24mn
Bit rate mode : Constant
Bit rate : 640 Kbps
Channel(s) : 6 channels
Channel positions : Front: L C R, Side: L R, LFE
Sampling rate : 48.0 KHz
Compression mode : Lossy
Stream size : 660 MiB (5%)
Title : DVO (Пётр Гланц и Инна Королева)
Language : Russian
Default : No
Forced : No
Audio #4
ID : 5
Format : AC-3
Format/Info : Audio Coding 3
Mode extension : CM (complete main)
Format settings, Endianness : Big
Codec ID : A_AC3
Duration : 2h 24mn
Bit rate mode : Constant
Bit rate : 192 Kbps
Channel(s) : 2 channels
Channel positions : Front: L R
Sampling rate : 48.0 KHz
Compression mode : Lossy
Stream size : 198 MiB (2%)
Title : DVO (НТВ)
Language : Russian
Default : No
Forced : No
Audio #5
ID : 6
Format : AC-3
Format/Info : Audio Coding 3
Mode extension : CM (complete main)
Format settings, Endianness : Big
Codec ID : A_AC3
Duration : 2h 24mn
Bit rate mode : Constant
Bit rate : 640 Kbps
Channel(s) : 6 channels
Channel positions : Front: L C R, Side: L R, LFE
Sampling rate : 48.0 KHz
Compression mode : Lossy
Stream size : 660 MiB (5%)
Title : AVO (Андрей Гаврилов)
Language : Russian
Default : No
Forced : No
Audio #6
ID : 7
Format : AC-3
Format/Info : Audio Coding 3
Mode extension : CM (complete main)
Format settings, Endianness : Big
Codec ID : A_AC3
Duration : 2h 24mn
Bit rate mode : Constant
Bit rate : 640 Kbps
Channel(s) : 6 channels
Channel positions : Front: L C R, Side: L R, LFE
Sampling rate : 48.0 KHz
Compression mode : Lossy
Stream size : 660 MiB (5%)
Title : AVO (Юрий Живов)
Language : Russian
Default : No
Forced : No
Audio #7
ID : 8
Format : AC-3
Format/Info : Audio Coding 3
Mode extension : CM (complete main)
Format settings, Endianness : Big
Codec ID : A_AC3
Duration : 2h 24mn
Bit rate mode : Constant
Bit rate : 448 Kbps
Channel(s) : 6 channels
Channel positions : Front: L C R, Side: L R, LFE
Sampling rate : 48.0 KHz
Compression mode : Lossy
Stream size : 462 MiB (4%)
Title : AVO (Леонид Володарский)
Language : Russian
Default : No
Forced : No
Audio #8
ID : 9
Format : AC-3
Format/Info : Audio Coding 3
Mode extension : CM (complete main)
Format settings, Endianness : Big
Codec ID : A_AC3
Duration : 2h 24mn
Bit rate mode : Constant
Bit rate : 448 Kbps
Channel(s) : 6 channels
Channel positions : Front: L C R, Side: L R, LFE
Sampling rate : 48.0 KHz
Compression mode : Lossy
Stream size : 462 MiB (4%)
Title : AVO (Денис Строев)
Language : Russian
Default : No
Forced : No
Audio #9
ID : 10
Format : AC-3
Format/Info : Audio Coding 3
Mode extension : CM (complete main)
Format settings, Endianness : Big
Codec ID : A_AC3
Duration : 2h 24mn
Bit rate mode : Constant
Bit rate : 448 Kbps
Channel(s) : 6 channels
Channel positions : Front: L C R, Side: L R, LFE
Sampling rate : 48.0 KHz
Compression mode : Lossy
Stream size : 462 MiB (4%)
Title : VO (sf@irat)
Language : Russian
Default : No
Forced : No
Audio #10
ID : 11
Format : AC-3
Format/Info : Audio Coding 3
Mode extension : CM (complete main)
Format settings, Endianness : Big
Codec ID : A_AC3
Duration : 2h 24mn
Bit rate mode : Constant
Bit rate : 640 Kbps
Channel(s) : 6 channels
Channel positions : Front: L C R, Side: L R, LFE
Sampling rate : 48.0 KHz
Compression mode : Lossy
Stream size : 660 MiB (5%)
Title : AVO, Евгений Гаевский
Language : Russian
Default : No
Forced : No
Audio #11
ID : 12
Format : AC-3
Format/Info : Audio Coding 3
Mode extension : CM (complete main)
Format settings, Endianness : Big
Codec ID : A_AC3
Duration : 2h 24mn
Bit rate mode : Constant
Bit rate : 640 Kbps
Channel(s) : 6 channels
Channel positions : Front: L C R, Side: L R, LFE
Sampling rate : 48.0 KHz
Compression mode : Lossy
Stream size : 660 MiB (5%)
Language : English
Default : No
Forced : No
Text #1
ID : 13
Format : UTF-8
Codec ID : S_TEXT/UTF8
Codec ID/Info : UTF-8 Plain Text
Language : Russian
Default : No
Forced : No
Text #2
ID : 14
Format : UTF-8
Codec ID : S_TEXT/UTF8
Codec ID/Info : UTF-8 Plain Text
Language : Russian
Default : No
Forced : No
Text #3
ID : 15
Format : UTF-8
Codec ID : S_TEXT/UTF8
Codec ID/Info : UTF-8 Plain Text
Language : English
Default : No
Forced : No
Text #4
ID : 16
Format : UTF-8
Codec ID : S_TEXT/UTF8
Codec ID/Info : UTF-8 Plain Text
Language : English
Default : No
Forced : No
Menu
00:00:00.000 : en:Close to the Ground
00:05:03.500 : en:A Free Man
00:17:42.583 : en:The Legend's Cousin
00:27:40.200 : en:Saso's Place
00:32:01.083 : en:Benny Blanco from the Bronx
00:36:34.666 : en:One Face That Still Knows You
00:45:24.166 : en:Taglialucci's Plan
00:50:35.916 : en:A Standup Guy
00:58:37.333 : en:Gail's Job
01:03:30.866 : en:A Problem with Benny
01:11:40.283 : en:Kleinfeld's Dilemma
01:17:23.916 : en:If You Can't Get In...
01:24:42.283 : en:That Bad Drinker Face
01:33:43.450 : en:Crossing the Line
01:45:17.283 : en:The D.A.'s Tape Recording
01:52:25.833 : en:One Last Piece of Business
01:57:33.916 : en:Amadesso's Angle
02:03:24.283 : en:On the Run
02:13:53.666 : en:Paradise Lost
02:18:59.283 : en:End Titles

x264

x264 [info]: frame I:1201 Avg QP:14.43 size:116342
x264 [info]: frame P:42659 Avg QP:16.64 size: 55713
x264 [info]: frame B:163523 Avg QP:18.72 size: 25365

Скриншоты

[Профиль] [ЛС]
Кто просматривает тему:

Показать сообщения:    

Текущее время: Сегодня 03:12

Часовой пояс: GMT



Вы не можете начинать темы
Вы не можете отвечать на сообщения
Вы не можете редактировать свои сообщения
Вы не можете удалять свои сообщения
Вы не можете голосовать в опросах
Вы не можете прикреплять файлы к сообщениям
Вы не можете скачивать файлы