Путь дракона / Meng long guo jiang (1972) BDRip 1080p | P

 
Автор Сообщение

Russian Mafia ®

Пол:

Стаж: 1 год 8 месяцев

Сообщений: 4246



Награды: 10 (Подробнее)

Mega Seeder 5 (Количество: 1) Top Releaser 4 (Количество: 1) Top Releaser 2 (Количество: 1)
Торрент-статистика

Создавать темы 21-Окт-2015 03:46

[Цитировать]

Информация о фильме
Название: Путь дракона
Оригинальное: Meng long guo jiang (The Way of the Dragon)
Год выхода: 1972
Выпущено: Concord Productions Inc., Golden Harvest Company
Страна: Гонконг
Жанр: Боевик, триллер, драма, комедия, криминал
Продолжительность: 01:38:41
Перевод: Профессиональный (многоголосый, закадровый) "Superbit"
Режиссер: Брюс Ли
В ролях: Брюс Ли, Нора Миао, Чак Норрис, Вэй Пинао, Роберт Уолл, Ван Инсик, Тони Лю, Юникорн Чан, Мализа Лонго, Чун Синь Хуан, Фу Чинг Чен, Чин Ти, Роберт Чен, Джон Т. Бенн, Роберт Бейкер, Риккардо Билли, Расселл Коуторн, Франц Коланджели, Джон Дербишир, Александр Гранд, Джим Джеймс, Чинг-Йинг Лам, Джузеппе Марокку, Андре Э. Морган, Андерс Нельсон, Юэнь Бяо
-Сюжет фильма
Тан приезжает из Гонконга в Рим, чтобы помочь друзьям семьи, чей ресторан задумали отобрать местные мафиози. Привыкшие всегда получать то, что захотят и не останавливаться ни перед чем, бандиты совершили большую ошибку, недооценив с виду скромного молодого человека. Не сумев справиться с ним своими силами, мафиози нанимают лучших европейских и японских мастеров боевых искусств, но Тан с легкостью побеждает всех. И тогда против него на арену древнего Колизея выходит «крутой и смертоносный» американец Колт.-Файл
Кодек: x264
Формат: MKV
Качество: BDRip 1080p (Источник: HDClub / BDRemux 1080p)
Видео: MPEG-4 AVC 1920x820 pix, 23.976 fps, 10366 kbps, 0.275 Bits/Pixel
Аудио I: Dolby Digital 5.1 ch, 48 kHz, 448 kbps (Rus)
Аудио II: Dolby Digital 5.1 ch, 48 kHz, 448 kbps (Chi)
Субтитры: SRT Русские, Английские
Меню: Сохранены оригинальные чаптеры Blu-ray

MI & x264

x264 [info]: frame I:941 Avg QP:17.24 size:176818
x264 [info]: frame P:26604 Avg QP:19.81 size: 95621
x264 [info]: frame B:114415 Avg QP:21.64 size: 43341
x264 [info]: consecutive B-frames: 1.0% 0.8% 3.0% 11.2% 16.6% 56.3% 7.6% 1.3% 2.1%-General
Unique ID : 229108063687146229148743389461282546738 (0xAC5C9BA83803B1B1951A5FC9D673E432)
Format : Matroska
Format version : Version 2
File size : 7.76 GiB
Duration : 1h 38mn
Overall bit rate : 11.3 Mbps
Movie name : Путь дракона (1972) BDRip (1080p)
Encoded date : UTC 2015-05-02 05:48:31
Writing application : mkvmerge v5.8.0 ('No Sleep / Pillow') built on Sep 2 2012 15:37:04
Writing library : libebml v1.2.3 + libmatroska v1.3.0
Video
ID : 1
Format : AVC
Format/Info : Advanced Video Codec
Format profile : High@L4.1
Format settings, CABAC : Yes
Format settings, ReFrames : 5 frames
Codec ID : V_MPEG4/ISO/AVC
Bit rate : 10.4 Mbps
Width : 1 920 pixels
Height : 820 pixels
Display aspect ratio : 2.35:1
Frame rate mode : Variable
Original frame rate : 23.976 fps
Color space : YUV
Chroma subsampling : 4:2:0
Bit depth : 8 bits
Scan type : Progressive
Bits/(Pixel*Frame) : 0.275
Title : Release by Alex260680
Writing library : x264 core 146 r2538 121396c
Encoding settings : cabac=1 / ref=5 / deblock=1:-3:-3 / analyse=0x3:0x133 / me=tesa / subme=11 / psy=1 / psy_rd=1.00:0.00 / mixed_ref=1 / me_range=24 / chroma_me=1 / trellis=2 / 8x8dct=1 / cqm=0 / deadzone=21,11 / fast_pskip=0 / chroma_qp_offset=-2 / threads=6 / lookahead_threads=1 / sliced_threads=0 / nr=0 / decimate=0 / interlaced=0 / bluray_compat=0 / constrained_intra=0 / bframes=8 / b_pyramid=2 / b_adapt=2 / b_bias=0 / direct=3 / weightb=1 / open_gop=0 / weightp=2 / keyint=240 / keyint_min=23 / scenecut=40 / intra_refresh=0 / rc=full2pass / mbtree=0 / bitrate=10366 / ratetol=1.0 / qcomp=0.60 / qpmin=0 / qpmax=69 / qpstep=4 / cplxblur=20.0 / qblur=0.5 / ip_ratio=1.40 / pb_ratio=1.30 / aq=1:1.00
Language : Chinese
Default : Yes
Forced : No
Audio #1
ID : 2
Format : AC-3
Format/Info : Audio Coding 3
Mode extension : CM (complete main)
Format settings, Endianness : Big
Codec ID : A_AC3
Duration : 1h 38mn
Bit rate mode : Constant
Bit rate : 448 Kbps
Channel(s) : 6 channels
Channel positions : Front: L C R, Side: L R, LFE
Sampling rate : 48.0 KHz
Bit depth : 16 bits
Compression mode : Lossy
Stream size : 316 MiB (4%)
Title : MVO (Superbit)
Language : Russian
Default : Yes
Forced : No
Audio #2
ID : 3
Format : AC-3
Format/Info : Audio Coding 3
Mode extension : CM (complete main)
Format settings, Endianness : Big
Codec ID : A_AC3
Duration : 1h 38mn
Bit rate mode : Constant
Bit rate : 448 Kbps
Channel(s) : 6 channels
Channel positions : Front: L C R, Side: L R, LFE
Sampling rate : 48.0 KHz
Bit depth : 16 bits
Compression mode : Lossy
Stream size : 316 MiB (4%)
Title : Original
Language : Chinese
Default : No
Forced : No
Text #1
ID : 4
Format : UTF-8
Codec ID : S_TEXT/UTF8
Codec ID/Info : UTF-8 Plain Text
Title : Full
Language : Russian
Default : No
Forced : No
Text #2
ID : 5
Format : UTF-8
Codec ID : S_TEXT/UTF8
Codec ID/Info : UTF-8 Plain Text
Title : Full
Language : English
Default : No
Forced : No
Menu
00:00:00.000 : en:Chapter 01
00:02:10.921 : en:Chapter 02
00:12:11.605 : en:Chapter 03
00:17:37.056 : en:Chapter 04
00:20:49.455 : en:Chapter 05
00:28:57.359 : en:Chapter 06
00:35:07.313 : en:Chapter 07
00:40:19.250 : en:Chapter 08
00:42:13.322 : en:Chapter 09
00:43:59.302 : en:Chapter 10
00:45:22.385 : en:Chapter 11
00:47:07.199 : en:Chapter 12
00:55:39.918 : en:Chapter 13
01:02:06.304 : en:Chapter 14
01:08:17.426 : en:Chapter 15
01:11:37.667 : en:Chapter 16
01:14:07.317 : en:Chapter 17
01:21:06.485 : en:Chapter 18
01:34:34.918 : en:Chapter 19
01:36:15.728 : en:Chapter 20

Интересно

• Сцена сражения Брюса Ли с Чаком Норрисом в колизее снималась в павильоне студии Golden Harvest.
• В американском прокате фильм был назван «Возвращение дракона» для того, чтобы развить успех другого фильма с Брюсом Ли «Выход Дракона» (1973), который вышел в прокат чуть раньше.
• Фильм снимался без звука. Весь саундтрек был создан при монтаже.
• Фильм снимался в римском Колизее.
• В фильме используется не только оригинальная музыка, но и музыка Эннио Морриконе, написанная для вестерна Серджио Леоне.
[Профиль] [ЛС]
Кто просматривает тему:

Показать сообщения:    

Текущее время: Сегодня 00:37

Часовой пояс: GMT



Вы не можете начинать темы
Вы не можете отвечать на сообщения
Вы не можете редактировать свои сообщения
Вы не можете удалять свои сообщения
Вы не можете голосовать в опросах
Вы не можете прикреплять файлы к сообщениям
Вы не можете скачивать файлы