Путешествуя светом / Riding Light (Альфонс Свайнхарт / Alphonse Swineheart) [2015 г., Документальный, Web-DL 720p] VO (А.Матвеев) + Sub (Perevodman)

 
Автор Сообщение

TorrentFilm ®

Пол:

Стаж: 2 года

Сообщений: 7741



Награды: Нет

Торрент-статистика

Создавать темы 14-Фев-2015 00:01

[Цитировать]

Путешествуя светом / Riding Light
Страна: США
Жанр: Документальный
Год выпуска: 2015
Продолжительность: 00:45:00
Перевод: Переводман
Озвучка: Одноголосая (закадровая) А.Матвеев
Оригинальная аудиодорожка: отсутствует
Субтитры: русские (хардсаб)-Режиссер: Альфонс Свайнхарт / Alphonse Swineheart
Описание: путешествие со скоростью света по Солнечной системе- -Доп. информация: Релиз группа Переулок Переводмана. Перевод частично озвучкой, частично хардсабом.-Качество видео: Web-DL 720p
Формат видео: MKV
Видео: x264, 1280x,692 (16:9), 967 kbps, 24 fps
Аудио: AC3, 224kbps, 48,0 kHz, 2.0 (VO)
Формат субтитров: hardsub
MediaInfo">

Скриншоты MediaInfo

General
Unique ID                                : 253584143579510422018272147852793084607 (0xBEC68790DC7A59D188BB3C77B2E5FABF)
Complete name                            : Riding.Light.2014.720p.VO.Doctor.Joker.Hardsubs.Perevodman.mkv
Format                                   : Matroska
Format version                           : Version 4 / Version 2
File size                                : 202 MiB
Duration                                 : 45mn 0s
Overall bit rate mode                    : Variable
Overall bit rate                         : 626 Kbps
Movie name                               : Релиз Переулка Переводмана
Encoded date                             : UTC 2015-02-12 21:58:11
Writing application                      : mkvmerge v6.0.0 ('Coming Up For Air') built on Jan 20 2013 09:52:00
Writing library                          : libebml v1.3.0 + libmatroska v1.4.0
Attachment                               : Poster.jpg
Video
ID                                       : 1
Format                                   : AVC
Format/Info                              : Advanced Video Codec
Format profile                           : High@L4.1
Format settings, CABAC                   : Yes
Format settings, ReFrames                : 9 frames
Codec ID                                 : V_MPEG4/ISO/AVC
Duration                                 : 45mn 0s
Bit rate mode                            : Variable
Bit rate                                 : 390 Kbps
Nominal bit rate                         : 967 Kbps
Maximum bit rate                         : 50.0 Mbps
Width                                    : 1 280 pixels
Height                                   : 692 pixels
Display aspect ratio                     : 1.85:1
Frame rate mode                          : Constant
Frame rate                               : 24.000 fps
Color space                              : YUV
Chroma subsampling                       : 4:2:0
Bit depth                                : 8 bits
Scan type                                : Progressive
Bits/(Pixel*Frame)                       : 0.018
Stream size                              : 125 MiB (62%)
Title                                    : x264
Writing library                          : x264 core 142 r2431 ac76440
Encoding settings                        : cabac=1 / ref=9 / deblock=1:-3:-3 / analyse=0x3:0x133 / me=umh / subme=10 / psy=1 / psy_rd=1.00:0.00 / mixed_ref=1 / me_range=32 / chroma_me=1 / trellis=2 / 8x8dct=1 / cqm=0 / deadzone=21,11 / fast_pskip=0 / chroma_qp_offset=-2 / threads=6 / lookahead_threads=1 / sliced_threads=0 / nr=0 / decimate=0 / interlaced=0 / bluray_compat=0 / constrained_intra=0 / bframes=16 / b_pyramid=2 / b_adapt=2 / b_bias=0 / direct=3 / weightb=1 / open_gop=0 / weightp=2 / keyint=240 / keyint_min=24 / scenecut=40 / intra_refresh=0 / rc_lookahead=60 / rc=2pass / mbtree=1 / bitrate=967 / ratetol=1.0 / qcomp=0.60 / qpmin=10 / qpmax=51 / qpstep=4 / cplxblur=20.0 / qblur=0.5 / vbv_maxrate=50000 / vbv_bufsize=62500 / nal_hrd=vbr / filler=0 / ip_ratio=1.40 / aq=1:1.00
Language                                 : English
Default                                  : Yes
Forced                                   : No
Audio
ID                                       : 2
Format                                   : AC-3
Format/Info                              : Audio Coding 3
Mode extension                           : CM (complete main)
Format settings, Endianness              : Big
Codec ID                                 : A_AC3
Duration                                 : 45mn 0s
Bit rate mode                            : Constant
Bit rate                                 : 224 Kbps
Channel(s)                               : 2 channels
Channel positions                        : Front: L R
Sampling rate                            : 48.0 KHz
Bit depth                                : 16 bits
Compression mode                         : Lossy
Stream size                              : 72.1 MiB (36%)
Title                                    : VO А.Матвеев | Перевод Переводман
Language                                 : Russian
Default                                  : Yes
Forced                                   : No
[Профиль] [ЛС]
Кто просматривает тему:

Форум Тема Автор Размер
365 365: Сети истории / Storia in Rete [выпуски 1-10] (Александра Джиганте / Alessandra Gigante, Фабио Андриола / Fabio Andriola) [2009-2013 г., окументально-постановочный, история, арх... skorpionN 8.01 GB
Animal Planet Animal Planet: Беловежская пуща: первозданный лес / The Primeval Forest of Belovezhskaya Pushcha (Anton Verstakov) [2015 г., Документальный, путешествия, флора, фауна, HDTVRip 720p] skorpionN 1.64 GB
BBC BBC: Большое железнодорожное путешествие по континенту / Great Continental Railway Journeys [сезон 4 серии 1-6 из 6] (Dave Minchin) [2015 г., Документальный, история, путешествия, HDTVRip 720p] skorpionN 8.85 GB
BBC BBC: Дэвид Бекхэм: Путешествие в неизведанное / David Beckham: Into the Unknown (2014) SATRip sergej644 1.23 GB
BBC BBC: Замки: История укреплений Британии / Castles: Britain's Fortified History [серии 1-3 из 3] (Ben Southwell) [2014 г., Документально-постановочный, история, археология, пу... skorpionN 4.39 GB
BBC BBC: Мир природы. Водопад Виктория - Гремящий дым / Natural World. Victoria Falls - The Smoke that Thunders [сезон 29 серия 2] (Тим Мартин / Tim Martin) [2009 г., Документальны... skorpionN 1.59 GB
BBC BBC: Повседневные чудеса / Everyday Miracles [серии 1 из 2] (Петер Леонард / Peter Leonard) [2014 г., Документальный, технологии, инновации, дизайн, путешествия, HDTVRip 720p] skorpionN 1.76 GB
BBC BBC: Путешествие во времени. (Шкала времени) Стоунхендж / Time watch. Stonehenge (Дэвид Стюарт / David Stewart) [2009 г., Документальный, история, археология, исследования, HDTVRip 720p] skorpionN 1.27 GB
Показать сообщения:    

Текущее время: Сегодня 12:32

Часовой пояс: GMT



Вы не можете начинать темы
Вы не можете отвечать на сообщения
Вы не можете редактировать свои сообщения
Вы не можете удалять свои сообщения
Вы не можете голосовать в опросах
Вы не можете прикреплять файлы к сообщениям
Вы не можете скачивать файлы