Путешествия Гулливера / Gulliver's Travels (Дэйв Фляйшер / Dave Fleischer) [1939 г., мультфильм, фэнтези, приключения, BDRip] [MVO] + [Eng]

 
Автор Сообщение

sergej644 ®

Пол:

Стаж: 4 года 11 месяцев

Сообщений: 6040

Откуда: Soviet Union



Награды: Нет

Торрент-статистика

Создавать темы 26-Июн-2014 12:44

[Цитировать]

-Путешествия Гулливера / Gulliver's Travels

Год выпуска: 1939
Страна: USA
Жанр: мультфильм, фэнтези, приключения
Продолжительность: 01:16:22
Перевод: Профессиональный (многоголосый, закадровый)
Режиссер: Дэйв Фляйшер / Dave Fleischer
В ролях: Джессика Драгонетте, Лэнни Росс, Мэл Бланк, Пинто Колвиг, Джун Форэй, Джек Мерсер, Сэм Паркер, Тед Пирс
-
По мотивам бессмертной повести Джонатана Свифта. После кораблекрушения молодой Гулливер оказался на неизвестном острове в плену у жителей страны Лилипутия. Само название страны говорит о том, как выглядят ее обитатели. Вначале жители Лилипутии встречают Гулливера вполне приветливо. И вот он узнает, что Лилипутия находится в состоянии войны с соседним островом Блефуску. Однако после того как он использовал свой гигантский рост, чтобы организовать секретное свидание принца Песто с его возлюбленной принцессой Мариной, Гулливера стали считать шпионом… Сейчас только настоящий подвиг может положить конец этой изнурительной войне между двумя соперничающими королевствами, населенными крошечными жителями… Удастся ли Гулливеру прекратить междоусобицу?
kinopoisk || imdb
Качество: BDRip
Формат: MKV
Видео кодек: H.26x
Аудио кодек: AC3
Видео: MPEG-4 AVC, 8991 Кбит/с, 1436x1080, 4:3, 0.242bit/pic
Аудио: Russian, АС3, 2 ch, 192 Кbps, 16 bit
Аудио 2: English, AC3, 2 ch, 192 kbps, 16 bit
-

Скриншоты

-

MediaInfo

Общее
Уникальный идентификатор         : 251608059868779851857051430021687977323 (0xBD49F31DE7602D8993F3668BC424A56B)
Полное имя                       : D:\Torent files\Gullivers.Travels.1939.(MVO+Eng)1080p.x264.mkv
Формат                           : Matroska
Версия формата                   : Version 1
Размер файла                     : 5,10 Гбайт
Продолжительность                : 1 ч. 16 м.
Общий поток                      : 9565 Кбит/сек
Дата кодирования                 : UTC 2014-06-20 21:58:27
Программа кодирования            : mkvmerge v2.4.0 ('Fumbling Towards Ecstasy') built on Oct 11 2008 20:13:15
Библиотека кодирования           : libebml v0.7.7 + libmatroska v0.8.1
Видео
Идентификатор                    : 1
Формат                           : AVC
Формат/Информация                : Advanced Video Codec
Профиль формата                  : High@L3.1
Параметр CABAC формата           : Да
Параметр ReFrames формата        : 4 кадра
Идентификатор кодека             : V_MPEG4/ISO/AVC
Продолжительность                : 1 ч. 16 м.
Битрейт                          : 8991 Кбит/сек
Ширина                           : 1436 пикселей
Высота                           : 1080 пикселей
Соотношение сторон               : 4:3
Частота кадров                   : 23,976 кадра/сек
Цветовое пространство            : YUV
Субдискретизация насыщенности    : 4:2:0
Битовая глубина                  : 8 бит
Тип развёртки                    : Прогрессивная
Бит/(Пиксели*Кадры)              : 0.242
Размер потока                    : 4,80 Гбайт (94%)
Заголовок                        : Gullivers.Travels.1939.1080p
Язык                             : English
Аудио #1
Идентификатор                    : 2
Формат                           : AC-3
Формат/Информация                : Audio Coding 3
Расширение режима                : CM (complete main)
Идентификатор кодека             : A_AC3
Продолжительность                : 1 ч. 16 м.
Вид битрейта                     : Постоянный
Битрейт                          : 192 Кбит/сек
Каналы                           : 2 канала
Расположение каналов             : Front: L R
Частота                          : 48,0 КГц
Битовая глубина                  : 16 бит
Метод сжатия                     : С потерями
Размер потока                    : 105 Мбайт (2%)
Заголовок                        : AC3, 192 kbs, MVO
Язык                             : Russian
Аудио #2
Идентификатор                    : 3
Формат                           : AC-3
Формат/Информация                : Audio Coding 3
Расширение режима                : CM (complete main)
Идентификатор кодека             : A_AC3
Продолжительность                : 1 ч. 16 м.
Вид битрейта                     : Постоянный
Битрейт                          : 192 Кбит/сек
Каналы                           : 2 канала
Расположение каналов             : Front: L R
Частота                          : 48,0 КГц
Битовая глубина                  : 16 бит
Метод сжатия                     : С потерями
Размер потока                    : 105 Мбайт (2%)
Заголовок                        : AC3, 192 kbs, Original
Язык                             : English
Меню
00:00:00.000                     : en:00:00:00.000
00:02:09.212                     : en:00:02:09.212
00:03:40.470                     : en:00:03:40.470
00:07:14.517                     : en:00:07:14.517
00:10:55.071                     : en:00:10:55.071
00:15:59.834                     : en:00:15:59.834
00:17:56.659                     : en:00:17:56.659
00:19:32.588                     : en:00:19:32.588
00:24:27.675                     : en:00:24:27.675
00:33:59.538                     : en:00:33:59.538
00:37:56.941                     : en:00:37:56.941
00:40:39.687                     : en:00:40:39.687
00:44:41.554                     : en:00:44:41.554
00:49:08.696                     : en:00:49:08.696
00:54:21.341                     : en:00:54:21.341
00:55:52.683                     : en:00:55:52.683
00:59:01.455                     : en:00:59:01.455
01:00:28.166                     : en:01:00:28.166
01:03:33.018                     : en:01:03:33.018
01:06:48.421                     : en:01:06:48.421
01:08:38.531                     : en:01:08:38.531
01:10:22.635                     : en:01:10:22.635
01:11:42.632                     : en:01:11:42.632
01:14:36.722                     : en:01:14:36.722
[Профиль] [ЛС]
Кто просматривает тему:

Форум Тема Автор Размер
365 365: Сети истории / Storia in Rete [выпуски 1-10] (Александра Джиганте / Alessandra Gigante, Фабио Андриола / Fabio Andriola) [2009-2013 г., окументально-постановочный, история, арх... skorpionN 8.01 GB
Animal Planet Animal Planet: Беловежская пуща: первозданный лес / The Primeval Forest of Belovezhskaya Pushcha (Anton Verstakov) [2015 г., Документальный, путешествия, флора, фауна, HDTVRip 720p] skorpionN 1.64 GB
BBC BBC: Большое железнодорожное путешествие по континенту / Great Continental Railway Journeys [сезон 4 серии 1-6 из 6] (Dave Minchin) [2015 г., Документальный, история, путешествия, HDTVRip 720p] skorpionN 8.85 GB
BBC BBC: Дэвид Бекхэм: Путешествие в неизведанное / David Beckham: Into the Unknown (2014) SATRip sergej644 1.23 GB
BBC BBC: Замки: История укреплений Британии / Castles: Britain's Fortified History [серии 1-3 из 3] (Ben Southwell) [2014 г., Документально-постановочный, история, археология, пу... skorpionN 4.39 GB
BBC BBC: Мир природы. Водопад Виктория - Гремящий дым / Natural World. Victoria Falls - The Smoke that Thunders [сезон 29 серия 2] (Тим Мартин / Tim Martin) [2009 г., Документальны... skorpionN 1.59 GB
BBC BBC: Путешествие во времени. (Шкала времени) Стоунхендж / Time watch. Stonehenge (Дэвид Стюарт / David Stewart) [2009 г., Документальный, история, археология, исследования, HDTVRip 720p] skorpionN 1.27 GB
BBC BBC: Сокровища Инда / Treasures of the Indus [серии 1-3 из 3] (Hugh Thomson) [2015 г., Документальный, путешествие, история, SATRip] skorpionN 1.81 GB
Показать сообщения:    

Текущее время: Сегодня 02:43

Часовой пояс: GMT



Вы не можете начинать темы
Вы не можете отвечать на сообщения
Вы не можете редактировать свои сообщения
Вы не можете удалять свои сообщения
Вы не можете голосовать в опросах
Вы не можете прикреплять файлы к сообщениям
Вы не можете скачивать файлы