Путешествие Ринглы / Ringlas celojums (Розалия Стиебра) [1973, Рисованный мультфильм, DVDRip] VO

 
Автор Сообщение

TorrentFilm ®

Пол:

Стаж: 2 года

Сообщений: 7741



Награды: Нет

Торрент-статистика

Создавать темы 15-Окт-2015 00:09

[Цитировать]

Путешествие Ринглы / Ringlas celojums
Страна: CCCР
Жанр: Рисованный мультфильм
Продолжительность: 00:09:36
Год выпуска: 1973
Перевод: Одноголосый закадровый
Русские субтитры: нет
Режиссёр: Розалия Стиебра
Описание:Фильм по мотивам стихотворения латышского поэта Э.Адамсона "Цыганочка Рингла".Мультик будет интересен детям любого возраста, он очень добрый и с глубоким смыслом: мораль картины заключается в том, что где бы ты ни находился, нужно всегда помнить о своем доме. Сказочное путешествие Ринглы в тайном лесу полно опасностей, но девочка ничего не боится. Она очень хочет встретить медведя Ричуса, о котором ей так много рассказывала ее бабушка.
Доп. информация:
«Телефильм-Рига»
сценарист Янис Закье
художник-постановщик Юрий Исайкин
аниматоры Айна Озолиня и Айя Зиле
оператор Янис Рубенис
композитор Игорь Яковлев
Раздача группы:
Качество: DVDRip
Формат: AVI
Видео: 720x544 (1.32:1), 25 fps, XviD Final 1.0 (build 34) ~2382 kbps avg, 0.24 bit/pixel
Аудио: 48 kHz, MPEG Layer 3, 2 ch, ~128.00 kbps avg
Субтитры: нет

Подробные технические данные

Format : AVIFormat/Info : Audio Video InterleaveFile size : 173 MiBDuration : 9mn 36sOverall bit rate : 2 520 KbpsWriting application : VirtualDubMod 1.5.10.2 (build 2540/release)Writing library : VirtualDubMod build 2540/release
VideoID : 0Format : MPEG-4 VisualFormat profile : Advanced Simple@L5Format settings, BVOP : 1Format settings, QPel : NoFormat settings, GMC : No warppointsFormat settings, Matrix : CustomCodec ID : XVIDCodec ID/Hint : XviDDuration : 9mn 36sBit rate : 2 383 KbpsWidth : 720 pixelsHeight : 544 pixelsDisplay aspect ratio : 4:3Frame rate : 25.000 fpsColor space : YUVChroma subsampling : 4:2:0Bit depth : 8 bitsScan type : ProgressiveCompression mode : LossyBits/(Pixel*Frame) : 0.243Stream size : 164 MiB (95%)Writing library : XviD 1.0.0 (UTC 2004-05-09)
AudioID : 1Format : MPEG AudioFormat version : Version 1Format profile : Layer 3Mode : Joint stereoMode extension : MS StereoCodec ID : 55Codec ID/Hint : MP3Duration : 9mn 36sBit rate mode : ConstantBit rate : 128 KbpsChannel(s) : 2 channelsSampling rate : 48.0 KHzCompression mode : LossyStream size : 8.80 MiB (5%)Alignment : Aligned on interleavesInterleave, duration : 40 ms (1.00 video frame)Interleave, preload duration : 504 msLanguage : Latvian, Lettish

Скриншоты

[Профиль] [ЛС]
Кто просматривает тему:

Форум Тема Автор Размер
365 365: Сети истории / Storia in Rete [выпуски 1-10] (Александра Джиганте / Alessandra Gigante, Фабио Андриола / Fabio Andriola) [2009-2013 г., окументально-постановочный, история, арх... skorpionN 8.01 GB
Animal Planet Animal Planet: Беловежская пуща: первозданный лес / The Primeval Forest of Belovezhskaya Pushcha (Anton Verstakov) [2015 г., Документальный, путешествия, флора, фауна, HDTVRip 720p] skorpionN 1.64 GB
BBC BBC: Большое железнодорожное путешествие по континенту / Great Continental Railway Journeys [сезон 4 серии 1-6 из 6] (Dave Minchin) [2015 г., Документальный, история, путешествия, HDTVRip 720p] skorpionN 8.85 GB
BBC BBC: Дэвид Бекхэм: Путешествие в неизведанное / David Beckham: Into the Unknown (2014) SATRip sergej644 1.23 GB
BBC BBC: Замки: История укреплений Британии / Castles: Britain's Fortified History [серии 1-3 из 3] (Ben Southwell) [2014 г., Документально-постановочный, история, археология, пу... skorpionN 4.39 GB
BBC BBC: Мир природы. Водопад Виктория - Гремящий дым / Natural World. Victoria Falls - The Smoke that Thunders [сезон 29 серия 2] (Тим Мартин / Tim Martin) [2009 г., Документальны... skorpionN 1.59 GB
BBC BBC: Путешествие во времени. (Шкала времени) Стоунхендж / Time watch. Stonehenge (Дэвид Стюарт / David Stewart) [2009 г., Документальный, история, археология, исследования, HDTVRip 720p] skorpionN 1.27 GB
BBC BBC: Сокровища Инда / Treasures of the Indus [серии 1-3 из 3] (Hugh Thomson) [2015 г., Документальный, путешествие, история, SATRip] skorpionN 1.81 GB
Показать сообщения:    

Текущее время: Сегодня 02:39

Часовой пояс: GMT



Вы не можете начинать темы
Вы не можете отвечать на сообщения
Вы не можете редактировать свои сообщения
Вы не можете удалять свои сообщения
Вы не можете голосовать в опросах
Вы не можете прикреплять файлы к сообщениям
Вы не можете скачивать файлы