Путешествие по ту сторону Солнца / Journey To The Far Side of The Sun (1969) BDRip 720p | L1

 
Автор Сообщение

Russian Mafia ®

Пол:

Стаж: 2 года 3 месяца

Сообщений: 4250



Награды: 10 (Подробнее)

Top Releaser 4 (Количество: 1) Mega Seeder 4 (Количество: 1) За внесенный вклад в развитие сайта (Количество: 1)
Торрент-статистика

Создавать темы 15-Окт-2016 09:06

[Цитировать]

Путешествие по ту сторону СолнцаJourney To The Far Side of The Sun«You will meet yourself face-to-face when Earth meets its duplicate in outer space!»- Страна: Великобритания
Жанр: фантастика
Год выпуска: 1969
Продолжительность: 01:41:39
Перевод: Любительский (одноголосый закадровый)
Субтитры: русские (2 вида), английские.-Режиссер: Роберт Пэрриш / Robert Parrish-В ролях: Рой Тиннес (Colonel Glenn Ross), Иэн Хендри (John Kane), Патрик Уаймарк (Jason Webb), Линн Лоринг (Sharon Ross), Лони фон Фридль (Lisa Hartmann), Франко Де Роза (Paulo Landi), Джордж Сьюэлл (Mark Neuman), Эд Бишоп (David Poulson), Филип Мэдок (Dr. Pontini), Владек Шейбал (Psychiatrist), Джордж Микелл, Херберт Лом (Doctor Hassler)-Описание: Учёные узнают, что у Земли существует планета-двойник, доселе не обнаруженная по причине своего нахождения в прямо противоположной точке орбиты, то есть прямо за солнцем. Туда снаряжают исследовательскую экспедицию, но она заканчивается неудачей - космический корабль терпит крушение на новой планете, и двое членов экипажа теряют сознание.-
MPAA: G - Нет возрастных ограничений-Семпл-Качество: BDRip
Контейнер: MKV
Видео: AVC, 1280x692 (1.85:1), 10000 kbps, 23,976 fps, 0,471 bpp
Аудио №1: русский / AC3 / 2.0 / 48 kHz / 192 kbps / VO ( SpaceDust )
Аудио №2: английский / AC3 / 2.0 / 48 kHz / 192 kbps
Навигация по главам: есть-

Media Info

Формат : Matroska
Версия формата : Version 2
Размер файла : 7,37 Гбайт
Продолжительность : 1 ч. 41 м.
Общий поток : 10,4 Мбит/сек
Название фильма : = Путешествие по ту сторону Солнца / Journey To The Far Side of The Sun (1969) BDRip 720p by SC Kosmos =
Дата кодирования : UTC 2016-10-15 07:19:35
Программа кодирования : mkvmerge v5.8.0 ('No Sleep / Pillow') built on Sep 2 2012 15:37:04
Библиотека кодирования : libebml v1.2.3 + libmatroska v1.3.0
Attachment : Yes
Видео
Идентификатор : 1
Формат : AVC
Формат/Информация : Advanced Video Codec
Профиль формата : High@L4.1
Параметр CABAC формата : Да
Параметр ReFrames формата : 9 кадров
Идентификатор кодека : V_MPEG4/ISO/AVC
Продолжительность : 1 ч. 41 м.
Битрейт : 10000 Кбит/сек
Ширина : 1280 пикселей
Высота : 692 пикселя
Соотношение сторон : 1,85:1
Режим частоты кадров : Постоянный
Частота кадров : 23,976 кадра/сек
Цветовое пространство : YUV
Субдискретизация насыщенности : 4:2:0
Битовая глубина : 8 бит
Тип развёртки : Прогрессивная
Бит/(Пиксели*Кадры) : 0.471
Размер потока : 6,96 Гбайт (94%)
Заголовок : Путешествие по ту сторону Солнца / Journey To The Far Side of The Sun (1969) BDRip 720p by SC Kosmos
Библиотека кодирования : x264 core 146 r2538 121396c
Настройки программы : cabac=1 / ref=9 / deblock=1:-3:-3 / analyse=0x3:0x113 / me=umh / subme=11 / psy=1 / psy_rd=1.00:0.10 / mixed_ref=1 / me_range=32 / chroma_me=1 / trellis=2 / 8x8dct=1 / cqm=0 / deadzone=21,11 / fast_pskip=0 / chroma_qp_offset=-3 / threads=12 / lookahead_threads=3 / sliced_threads=0 / nr=0 / decimate=0 / interlaced=0 / bluray_compat=0 / constrained_intra=0 / bframes=14 / b_pyramid=2 / b_adapt=2 / b_bias=0 / direct=3 / weightb=1 / open_gop=0 / weightp=2 / keyint=240 / keyint_min=23 / scenecut=40 / intra_refresh=0 / rc_lookahead=50 / rc=2pass / mbtree=0 / bitrate=10000 / ratetol=1.0 / qcomp=0.60 / qpmin=0 / qpmax=69 / qpstep=4 / cplxblur=20.0 / qblur=0.5 / vbv_maxrate=62500 / vbv_bufsize=78125 / nal_hrd=none / filler=0 / ip_ratio=1.40 / pb_ratio=1.30 / aq=1:1.00
Язык : English
Default : Да
Forced : Нет
Аудио #1
Идентификатор : 2
Формат : AC-3
Формат/Информация : Audio Coding 3
Расширение режима : CM (complete main)
Параметр Endianness формата : Big
Идентификатор кодека : A_AC3
Продолжительность : 1 ч. 41 м.
Вид битрейта : Постоянный
Битрейт : 192 Кбит/сек
Каналы : 2 канала
Расположение каналов : Front: L R
Частота : 48,0 КГц
Битовая глубина : 16 бит
Метод сжатия : С потерями
Размер потока : 140 Мбайт (2%)
Заголовок : VO ( SpaceDust )
Язык : Russian
Default : Да
Forced : Нет
Аудио #2
Идентификатор : 3
Формат : AC-3
Формат/Информация : Audio Coding 3
Расширение режима : CM (complete main)
Параметр Endianness формата : Big
Идентификатор кодека : A_AC3
Продолжительность : 1 ч. 41 м.
Вид битрейта : Постоянный
Битрейт : 192 Кбит/сек
Каналы : 2 канала
Расположение каналов : Front: L R
Частота : 48,0 КГц
Битовая глубина : 16 бит
Метод сжатия : С потерями
Размер потока : 140 Мбайт (2%)
Язык : English
Default : Нет
Forced : Нет
Текст #1
Идентификатор : 4
Формат : UTF-8
Идентификатор кодека : S_TEXT/UTF8
Идентификатор кодека/Информация : UTF-8 Plain Text
Заголовок : Mavi
Язык : Russian
Default : Нет
Forced : Нет
Текст #2
Идентификатор : 5
Формат : UTF-8
Идентификатор кодека : S_TEXT/UTF8
Идентификатор кодека/Информация : UTF-8 Plain Text
Язык : Russian
Default : Нет
Forced : Нет
Текст #3
Идентификатор : 6
Формат : UTF-8
Идентификатор кодека : S_TEXT/UTF8
Идентификатор кодека/Информация : UTF-8 Plain Text
Язык : English
Default : Нет
Forced : Нет
Меню
00:00:00.000 : en:00:00:00.000
00:08:12.117 : en:00:08:12.117
00:12:26.496 : en:00:12:26.496
00:16:28.738 : en:00:16:28.738
00:21:06.599 : en:00:21:06.599
00:26:49.399 : en:00:26:49.399
00:33:19.748 : en:00:33:19.748
00:39:25.863 : en:00:39:25.863
00:43:53.381 : en:00:43:53.381
00:49:29.091 : en:00:49:29.091
00:57:33.575 : en:00:57:33.575
01:02:59.192 : en:01:02:59.192
01:09:20.865 : en:01:09:20.865
01:20:48.385 : en:01:20:48.385
01:28:14.748 : en:01:28:14.748
01:34:43.970 : en:01:34:43.970
-

Скриншоты


[Профиль] [ЛС]
Кто просматривает тему:

Форум Тема Автор Размер
BBC BBC: Дикая Патагония / Wild Patagonia [серии 1-3 из 3] (Tuppence Stone, Nick Smith-Baker) [2015 г., Документальный, фауна, флора, путешествия, HDTVRip-AVC 1080i] skorpionN 9.01 GB
Travel Travel Channel: Легенды старого замка / Castle Secrets & Legends [сезон 1 серии 1-5 из 5] (Рэми Вэбер) [2014 г., Документальный, приключения, образование, история, путешествия, HDTVRip-AVC 720p] skorpionN 8.21 GB
Travel Travel: Музейные тайны / Mysteries at the Museum [сезон 10 серии 1-10, 12,13 из 13] (Remy Weber, Sterling Milan, Nick Zeig-Owens) [2016 г., Документально-постановочный, история, а... skorpionN 10.71 GB
Travel Travel: Тайны замков / Mysteries at the Castle (Castle Secrets & Legends) [сезон 2 серии 1-13 из 13] (Jeremiah Crowell) [2015 г., Документальный, приключения, образование, история, путешествия... skorpionN 18.55 GB
Viasat History Viasat History: Париж и Берлин: путешествие сквозь время / Paris-Berlin: Shapes and Shades of History[серии 1-4 из 4] (Frédéric Wilner) [2015 г., Документальный, история, архитектура, SATRip] skorpionN 2.95 GB
Viasat Nature Viasat Nature: Австралия: путешествие сквозь эволюцию / Australia - A Journey Through Evolution (Laura Casamayor del Rincon) [2014 г., Документальный, познавательный, SATRip] skorpionN 744 MB
Показать сообщения:    

Текущее время: Сегодня 16:47

Часовой пояс: GMT



Вы не можете начинать темы
Вы не можете отвечать на сообщения
Вы не можете редактировать свои сообщения
Вы не можете удалять свои сообщения
Вы не можете голосовать в опросах
Вы не можете прикреплять файлы к сообщениям
Вы не можете скачивать файлы