Путешествие на край света с Артом Вольфом / Travels to the Edge with Art Wolfe / 1-2 сезоны, 6 серий из 26 [2007-2008, Документальный, познавательный, HDTVRip 720p]

 
Автор Сообщение

TorrentFilm ®

Пол:

Стаж: 2 года

Сообщений: 7741



Награды: Нет

Торрент-статистика

Создавать темы 30-Апр-2015 00:04

[Цитировать]

Путешествие на край света с Артом ВольфомTravels to the Edge with Art Wolfe
-Годы выпуска: 2007-2008
Страна: США
Производство: Edge of the Earth Productions, in association with Blue Moon Productions, Inc.
Жанр: Документальный, познавательный, природа, фотография
Продолжительность: 10 x ~00:23:00
Режиссёры: Dan Larson, Sean White
В главной роли: Art Wolfe-Перевод: Профессиональный (двухголосый, закадровый)
Русские субтитры: нет-Описание: На счету легендарного фотографа Арта Вольфа свыше миллиона уникальных кадров и 60 авторских альбомов, многие из которых были удостоены престижных наград. Свое творчество фотомастер всецело посвятил таинствам жизни дикой природы – ее уникальным пейзажам и представителям исчезающих видов. Сериал «Путешествие на край света» приоткрывает завесу тайны над лабораторией фотохудожника. Это история создания неповторимых кадров в тех уголках планеты, куда не ступала нога человека. Через объектив своего фотоаппарата Арт Вольф наблюдает жизнь в суровых льдах Арктики, в раскаленных песках пустыни, в тропиках джунглей и на скалистых побережьях океанов. География фотосессий Вольфа поражает своей экзотикой. Создатели сериала не отступают от фотографа ни на шаг в его путешествиях по заповедным и нетронутым местам нашей планеты. И, где бы ни появлялся Арт Вольф, всюду он предстает не столько в роли фотографа, сколько в амплуа страстного защитника природы, всю свою жизнь пытающегося запечатлеть ее хрупкую красоту...-Тип релиза: HDTVRip 720p
Контейнер: MKV-Видео: AVC H.264, 1280x720p (16:9), 25p fps, ~3160 kbps, ~0.13,7 bits/pixel
Аудио 1: Russian, MP2, 48KHz, 2 channels, 192 kbps
Аудио 2: English, MP2, 48KHz, 2 channels, 192 kbps-Источник: Рип с HDTV-записи телеканала Travel+Adventure HD
Автор рипа - san007-Дополнительная информация: Телеканал Travel+Adventure HD почти во всех своих программах обрезает финальные титры (исключение - "Общепит" и "Базарный день"). Поэтому не удивляйтесь тому, что каждая серия будет резко заканчиваться через 1-2 секунды после последнего слова сказанного переводчиком.
В раздачу включены 2 трейлера передачи которые выполняют роль семплов. Вы можете скачать только эти трейлеры и оценить по ним качество картинки и суть самой передачи. А далее уже решайте - качать все серии или нет. Однако любителям дикой природы и прекрасных съёмок, а также ценителям мастерства фотографа Арта Вольфа можно сразу качать всю раздачу в коллекцию. Это одна из двух самых лучших передач телеканала Travel+Adventure HD. А может быть даже и самая лучшая!
Планируемое в ближайшее время количество серий в раздаче - все 26!
Также, скоро будут выложены и другие интересные передачи с данного телеканала: "Каменные джунгли" (2 сезона), "О чем не напишут в путеводителе" (3 сезона), "Путешествие за красотой" (1 сезон), "Путешествие на троих" (1 сезон), "Вояж по-французски" (3 сезона) и конечно, самый мегахит - "Общепит в базарный день" (3 сезона).-

Раздача в HDTV 1080i

Список эпизодов

S01E01 Bolivia - The Altiplano (Боливия - Плато Альтиплано)
S01E02 Alaska - Glacier Bay (Аляска - Ледниковый залив)
S01E06 Alaska - Arctic National Wildlife Refuge (Аляска - Национальный арктический заповедник)
S01E07 Peru - Manu (Перу - Заповедник Ману)
S01E08 Kenya - Masai Mara and Laikipia (Кения - Заповедник Масаи-Мара и плато Лайкипия)
S01E11 India - Allahabad and Varanasi (Индия - Аллахабад и Варанаси)
S01E12 The Southern Ocean - South Georgia Island (Южная Атлантика - остров Южная Георгия)

S02E04 Antarctica and the Falkland Islands (Антарктика и Фолклендские острова)
S02E05 Brazil - The Pantanal (Бразилия - Пантанал)
S02E08 Wild Asia - Nepal and India (Дикая Азия - Непал и Индия)

Travels to the Edge with Art Wolfe - Trailer 1 (1-й трейлер от телеканала Travel+Adventure)
Travels to the Edge with Art Wolfe - Trailer 2 (2-й трейлер от телеканала Travel+Adventure)

MediaInfo

Format : Matroska
Format version : Version 4 / Version 2
File size : 583 MiB
Duration : 23mn 00s
Overall bit rate : 3 546 Kbps
Writing application : mkvmerge v7.7.0 ('Six Voices') 64bit
Writing library : libebml v1.3.1 + libmatroska v1.4.2
Video
ID : 1
Format : AVC
Format/Info : Advanced Video Codec
Format profile : High@L4.1
Format settings, CABAC : Yes
Format settings, ReFrames : 8 frames
Codec ID : V_MPEG4/ISO/AVC
Duration : 23mn 00s
Bit rate : 3 160 Kbps
Width : 1 280 pixels
Height : 720 pixels
Display aspect ratio : 16:9
Frame rate mode : Constant
Frame rate : 25.000 fps
Color space : YUV
Chroma subsampling : 4:2:0
Bit depth : 8 bits
Scan type : Progressive
Bits/(Pixel*Frame) : 0.137
Stream size : 508 MiB (87%)
Writing library : x264 core 142 r2479kMod dd79a61
Encoding settings : cabac=1 / ref=8 / deblock=1:-1:-1 / analyse=0x3:0x133 / me=umh / subme=9 / psy=1 / fade_compensate=0.00 / psy_rd=1.00:0.10 / mixed_ref=1 / me_range=16 / chroma_me=1 / trellis=2 / 8x8dct=1 / cqm=0 / deadzone=21,11 / fast_pskip=1 / chroma_qp_offset=-3 / threads=6 / lookahead_threads=1 / sliced_threads=0 / nr=0 / decimate=1 / interlaced=0 / bluray_compat=0 / constrained_intra=0 / fgo=0 / bframes=3 / b_pyramid=2 / b_adapt=2 / b_bias=0 / direct=3 / weightb=1 / open_gop=0 / weightp=2 / keyint=250 / keyint_min=25 / scenecut=40 / intra_refresh=0 / rc_lookahead=60 / rc=2pass / mbtree=1 / bitrate=3160 / ratetol=1.0 / qcomp=0.60 / qpmin=0 / qpmax=69 / qpstep=4 / cplxblur=20.0 / qblur=0.5 / ip_ratio=1.40 / aq=1:1.00
Default : Yes
Forced : No
Audio #1
ID : 2
Format : MPEG Audio
Format version : Version 1
Format profile : Layer 2
Mode : Joint stereo
Mode extension : Intensity Stereo + MS Stereo
Codec ID : A_MPEG/L2
Codec ID/Hint : MP2
Duration : 23mn 00s
Bit rate mode : Constant
Bit rate : 192 Kbps
Channel(s) : 2 channels
Sampling rate : 48.0 KHz
Compression mode : Lossy
Stream size : 31.6 MiB (2%)
Title : Russian
Language : Russian
Default : Yes
Forced : No
Audio #2
ID : 3
Format : MPEG Audio
Format version : Version 1
Format profile : Layer 2
Mode : Joint stereo
Mode extension : Intensity Stereo + MS Stereo
Codec ID : A_MPEG/L2
Codec ID/Hint : MP2
Duration : 23mn 00s
Bit rate mode : Constant
Bit rate : 192 Kbps
Channel(s) : 2 channels
Sampling rate : 48.0 KHz
Compression mode : Lossy
Stream size : 31.6 MiB (2%)
Title : English
Language : English
Default : No
Forced : No
[Профиль] [ЛС]
Кто просматривает тему:

Форум Тема Автор Размер
365 365: Сети истории / Storia in Rete [выпуски 1-10] (Александра Джиганте / Alessandra Gigante, Фабио Андриола / Fabio Andriola) [2009-2013 г., окументально-постановочный, история, арх... skorpionN 8.01 GB
Animal Planet Animal Planet: Беловежская пуща: первозданный лес / The Primeval Forest of Belovezhskaya Pushcha (Anton Verstakov) [2015 г., Документальный, путешествия, флора, фауна, HDTVRip 720p] skorpionN 1.64 GB
BBC BBC: Большое железнодорожное путешествие по континенту / Great Continental Railway Journeys [сезон 4 серии 1-6 из 6] (Dave Minchin) [2015 г., Документальный, история, путешествия, HDTVRip 720p] skorpionN 8.85 GB
BBC BBC: Дэвид Бекхэм: Путешествие в неизведанное / David Beckham: Into the Unknown (2014) SATRip sergej644 1.23 GB
BBC BBC: Замки: История укреплений Британии / Castles: Britain's Fortified History [серии 1-3 из 3] (Ben Southwell) [2014 г., Документально-постановочный, история, археология, пу... skorpionN 4.39 GB
BBC BBC: Мир природы. Водопад Виктория - Гремящий дым / Natural World. Victoria Falls - The Smoke that Thunders [сезон 29 серия 2] (Тим Мартин / Tim Martin) [2009 г., Документальны... skorpionN 1.59 GB
BBC BBC: Повседневные чудеса / Everyday Miracles [серии 1 из 2] (Петер Леонард / Peter Leonard) [2014 г., Документальный, технологии, инновации, дизайн, путешествия, HDTVRip 720p] skorpionN 1.76 GB
BBC BBC: Путешествие во времени. (Шкала времени) Стоунхендж / Time watch. Stonehenge (Дэвид Стюарт / David Stewart) [2009 г., Документальный, история, археология, исследования, HDTVRip 720p] skorpionN 1.27 GB
Показать сообщения:    

Текущее время: Сегодня 02:26

Часовой пояс: GMT



Вы не можете начинать темы
Вы не можете отвечать на сообщения
Вы не можете редактировать свои сообщения
Вы не можете удалять свои сообщения
Вы не можете голосовать в опросах
Вы не можете прикреплять файлы к сообщениям
Вы не можете скачивать файлы