Путешествие к Центру Земли в 3Д / Journey to the Center of the Earth 3D (Эрик Бревиг / Eric Brevig) [2008, Фантастика, фэнтези, боевик, приключения, BD3DRemux, 1080p] SeparateFiles / Раздельная стереопара

 
Автор Сообщение

TorrentFilm ®

Пол:

Стаж: 2 года

Сообщений: 7741



Награды: Нет

Торрент-статистика

Создавать темы 29-Янв-2016 00:07

[Цитировать]

Путешествие к Центру Земли / Journey to the Center of the Earth
Год выпуска: 2008
Страна: США
Студия: Walden Media
Жанр: Фантастика, фэнтези, боевик, приключения
Продолжительность: 1:32:34-Перевод: Профессиональный (дублированный)
Русские субтитры: Есть-Режиссер на русском: Эрик Бревиг
Режиссер на английском: Eric Brevig-В ролях: Брендан Фрейзер, Джош Хатчерсон, Анита Брием, Сет Майерс, Жан Мишель Паре, Джейн Вилер, Фрэнк Фонтейн, Джанкарло Кальтабиано, Каньехтио Хорн, Гарт Гилкер-Роли озвучивали: Пётр Иващенко, Дмитрий Череватенко, Татьяна Шитова, Василий Дахненко, Олег Форостенко-Описание: Пытаясь узнать о судьбе исчезнувшего брата, учёный, его племянник и их проводница открывают фантастичный и опасный затерянный мир в центре Земли.-***************************************
Дополнительная информация по релизу:
Качество видео и звука не изменялось!
Показывает и в 2D и в 3D
***************************************-Сэмпл: http://depositfiles.com/files/quba4rzi1-Качество: Blu-Ray Disc
Контейнер: TS
Формат 3D: SeparateFiles / Раздельная стереопара
Порядок ракурсов: левый ракурс первый
Видео кодек: h.264, MVC
Аудио кодек: AC3
Видео: TS, AVC - 33.8 Mbps, MVC - 22.5 Mbps / 1080p / 23.976 fps / 16:9 / Stereo High@L4.1
Аудио: Russian / AC-3 / 5.1 / 48 kHz / 448 Kbps
Аудио 2: Ukrainian / AC-3 / 5.1 / 48 kHz / 448 Kbps
Аудио 3: English / AC-3 / 2.0 / 48 kHz / 192 Kbps
Субтитры: English, Russian

MediaInfo

Общее
Идентификатор : 1 (0x1)
Полное имя : F:\Reliz\JourneyToTheCenterOfTheEarth.3D.2008.BD3DRemux.ts
Формат : MPEG-TS
Размер файла : 18,9 Гбайт
Продолжительность : 1 ч. 32 м.
Режим общего битрейта : Переменный
Общий поток : 29,3 Мбит/сек
Максимальный общий битрейт : 35,5 Мбит/сек
Видео #1
Идентификатор : 4113 (0x1011)
Идентификатор меню : 1 (0x1)
Формат : AVC
Формат/Информация : Advanced Video Codec
Профиль формата : Stereo High@L4.1
MultiView_Count : 2
Параметр CABAC формата : Да
Параметр ReFrames формата : 4 кадра
Идентификатор кодека : 32
Продолжительность : 1 ч. 32 м.
Вид битрейта : Переменный
Максимальный битрейт : 22,5 Мбит/сек
Ширина : 1920 пикселей
Высота : 1080 пикселей
Соотношение сторон : 16:9
Частота кадров : 23,976 кадра/сек
Цветовое пространство : YUV
Субдискретизация насыщенности : 4:2:0
Битовая глубина : 8 бит
Тип развёртки : Прогрессивная
Видео #2
Идентификатор : 4114 (0x1012)
Идентификатор меню : 1 (0x1)
Формат : AVC
Формат/Информация : Advanced Video Codec
Профиль формата : High@L4.1
Параметр CABAC формата : Да
Параметр ReFrames формата : 4 кадра
Параметр GOP формата : M=1, N=12
Идентификатор кодека : 27
Продолжительность : 1 ч. 32 м.
Вид битрейта : Переменный
Максимальный битрейт : 33,8 Мбит/сек
Ширина : 1920 пикселей
Высота : 1080 пикселей
Соотношение сторон : 16:9
Частота кадров : 23,976 кадра/сек
Цветовое пространство : YUV
Субдискретизация насыщенности : 4:2:0
Битовая глубина : 8 бит
Тип развёртки : Прогрессивная
Аудио #1
Идентификатор : 4352 (0x1100)
Идентификатор меню : 1 (0x1)
Формат : AC-3
Формат/Информация : Audio Coding 3
Профиль формата : Dolby Digital
Расширение режима : CM (complete main)
Параметр Endianness формата : Big
Идентификатор кодека : 129
Продолжительность : 1 ч. 32 м.
Вид битрейта : Постоянный
Битрейт : 192 Кбит/сек
Каналы : 2 канала
Расположение каналов : Front: L R
Частота : 48,0 КГц
Битовая глубина : 16 бит
Метод сжатия : С потерями
Размер потока : 127 Мбайт (1%)
Язык : English
Аудио #2
Идентификатор : 4353 (0x1101)
Идентификатор меню : 1 (0x1)
Формат : AC-3
Формат/Информация : Audio Coding 3
Расширение режима : CM (complete main)
Параметр Endianness формата : Big
Идентификатор кодека : 129
Продолжительность : 1 ч. 32 м.
Вид битрейта : Постоянный
Битрейт : 448 Кбит/сек
Каналы : 6 каналов
Расположение каналов : Front: L C R, Side: L R, LFE
Частота : 48,0 КГц
Битовая глубина : 16 бит
Метод сжатия : С потерями
Размер потока : 297 Мбайт (2%)
Язык : Russian
Аудио #3
Идентификатор : 4354 (0x1102)
Идентификатор меню : 1 (0x1)
Формат : AC-3
Формат/Информация : Audio Coding 3
Расширение режима : CM (complete main)
Параметр Endianness формата : Big
Идентификатор кодека : 129
Продолжительность : 1 ч. 32 м.
Вид битрейта : Постоянный
Битрейт : 448 Кбит/сек
Каналы : 6 каналов
Расположение каналов : Front: L C R, Side: L R, LFE
Частота : 48,0 КГц
Битовая глубина : 16 бит
Метод сжатия : С потерями
Размер потока : 297 Мбайт (2%)
Язык : Ukrainian
Текст #1
Идентификатор : 4608 (0x1200)
Идентификатор меню : 1 (0x1)
Формат : PGS
Идентификатор кодека : 144
Язык : English
Текст #2
Идентификатор : 4609 (0x1201)
Идентификатор меню : 1 (0x1)
Формат : PGS
Идентификатор кодека : 144
Язык : Russian

Скриншоты



[Профиль] [ЛС]
Кто просматривает тему:

Форум Тема Автор Размер
365 365: Сети истории / Storia in Rete [выпуски 1-10] (Александра Джиганте / Alessandra Gigante, Фабио Андриола / Fabio Andriola) [2009-2013 г., окументально-постановочный, история, арх... skorpionN 8.01 GB
Animal Planet Animal Planet: Беловежская пуща: первозданный лес / The Primeval Forest of Belovezhskaya Pushcha (Anton Verstakov) [2015 г., Документальный, путешествия, флора, фауна, HDTVRip 720p] skorpionN 1.64 GB
BBC BBC: Большое железнодорожное путешествие по континенту / Great Continental Railway Journeys [сезон 4 серии 1-6 из 6] (Dave Minchin) [2015 г., Документальный, история, путешествия, HDTVRip 720p] skorpionN 8.85 GB
BBC BBC: Дэвид Бекхэм: Путешествие в неизведанное / David Beckham: Into the Unknown (2014) SATRip sergej644 1.23 GB
BBC BBC: Замки: История укреплений Британии / Castles: Britain's Fortified History [серии 1-3 из 3] (Ben Southwell) [2014 г., Документально-постановочный, история, археология, пу... skorpionN 4.39 GB
BBC BBC: Мир природы. Водопад Виктория - Гремящий дым / Natural World. Victoria Falls - The Smoke that Thunders [сезон 29 серия 2] (Тим Мартин / Tim Martin) [2009 г., Документальны... skorpionN 1.59 GB
BBC BBC: Повседневные чудеса / Everyday Miracles [серии 1 из 2] (Петер Леонард / Peter Leonard) [2014 г., Документальный, технологии, инновации, дизайн, путешествия, HDTVRip 720p] skorpionN 1.76 GB
BBC BBC: Путешествие во времени. (Шкала времени) Стоунхендж / Time watch. Stonehenge (Дэвид Стюарт / David Stewart) [2009 г., Документальный, история, археология, исследования, HDTVRip 720p] skorpionN 1.27 GB
Показать сообщения:    

Текущее время: Сегодня 04:19

Часовой пояс: GMT



Вы не можете начинать темы
Вы не можете отвечать на сообщения
Вы не можете редактировать свои сообщения
Вы не можете удалять свои сообщения
Вы не можете голосовать в опросах
Вы не можете прикреплять файлы к сообщениям
Вы не можете скачивать файлы