Путешествие за красотой (В поисках лучшего СПА) / SPA Seekers / 4 серии из 10 [2008, Документальный, познавательный, HDTVRip 720p]

 
Автор Сообщение

TorrentFilm ®

Пол:

Стаж: 2 года

Сообщений: 7741



Награды: Нет

Торрент-статистика

Создавать темы 07-Май-2015 00:03

[Цитировать]

Путешествие за красотой(В поисках лучшего СПА)SPA Seekers
-Год выпуска: 2008
Страна: Сингапур
Производство: Sweet Rain Productions
Жанр: Документальный, познавательный, природа, спа-курорты
Продолжительность: 9 x ~00:26:25
В главных ролях: Jaymee Ong, Lindsay Ong-Перевод: Профессиональный (двухголосый, закадровый)
Русские субтитры: нет-Описание: Сингапурская актриса и фотомодель Джейми Онг и её сестра Линдси, живущая в Австралии, отправляются вместе в увлекательное путешествие по двум десяткам азиатских спа-курортов от Индонезии и Мальдивов до Таиланда и Тайваня. Они с пристрастием изучат действие всех процедур из ассортимента курортов, меню их ресторанов, дизайн номеров отелей и гипнотизирующие виды природы.-Тип релиза: HDTVRip 720p
Контейнер: MKV-Видео: AVC H.264, 1280x720p (16:9), 25p fps, ~3230 kbps, ~0.14,0 bits/pixel
Аудио 1: Russian, MP2, 48KHz, 2 channels, 192 kbps
Аудио 2: English, MP2, 48KHz, 2 channels, 192 kbps-Источник: Рип с HDTV-записи телеканала Travel+Adventure HD
Автор рипа - san007-Дополнительная информация: Телеканал Travel+Adventure HD почти во всех своих программах обрезает финальные титры (исключение - "Общепит" и "Базарный день"). Поэтому не удивляйтесь тому, что каждая серия будет резко заканчиваться через 1-2 секунды после последнего слова сказанного переводчиком.
В раздачу включен трейлер передачи который выполняет роль семпла. Вы можете скачать сначала только его, чтобы оценить качество картинки и суть самой передачи.
-Раздача в HDTV 1080i-

Раздачи с Travel+Adventure HD

Путешествие на край света с Артом Вольфом: 1080i, 720p

Список эпизодов

SPA Seekers - Trailer (Трейлер передачи от Travel+Adventure HD)
E01 Ko Samui, Thailand (о. Ко Самуи, Таиланд)
E02 Phuket, Thailand (о. Пхукет, Таиланд)
E03 Langkawi, Malaysia (о. Лангкави, Малайзия)
E04 Bali, Indonesia (о. Бали, Индонезия)
E05 Siem Reap, Cambodia (Сиемреап, Камбоджа)
E07 The Maldives (Мальдивы)
E08 Boracay, The Philippines (о. Боракай, Филиппины)
E09 Nha Trang, Vietnam (Нячанг, Вьетнам)
E10 Taiwan (Тайвань)

MediaInfo

Format : Matroska
Format version : Version 4 / Version 2
File size : 683 MiB
Duration : 26mn 24s
Overall bit rate : 3 617 Kbps
Movie name : SPA Seekers E01 Ko Samui, Thailand
Writing application : mkvmerge v7.7.0 ('Six Voices') 64bit
Writing library : libebml v1.3.1 + libmatroska v1.4.2
Video
ID : 1
Format : AVC
Format/Info : Advanced Video Codec
Format profile : High@L4.1
Format settings, CABAC : Yes
Format settings, ReFrames : 8 frames
Codec ID : V_MPEG4/ISO/AVC
Duration : 26mn 24s
Bit rate : 3 230 Kbps
Width : 1 280 pixels
Height : 720 pixels
Display aspect ratio : 16:9
Frame rate mode : Constant
Frame rate : 25.000 fps
Color space : YUV
Chroma subsampling : 4:2:0
Bit depth : 8 bits
Scan type : Progressive
Bits/(Pixel*Frame) : 0.140
Stream size : 597 MiB (87%)
Writing library : x264 core 142 r2479kMod dd79a61
Encoding settings : cabac=1 / ref=8 / deblock=1:-1:-1 / analyse=0x3:0x133 / me=umh / subme=9 / psy=1 / fade_compensate=0.00 / psy_rd=1.00:0.10 / mixed_ref=1 / me_range=24 / chroma_me=1 / trellis=2 / 8x8dct=1 / cqm=0 / deadzone=21,11 / fast_pskip=1 / chroma_qp_offset=-3 / threads=6 / lookahead_threads=1 / sliced_threads=0 / nr=0 / decimate=1 / interlaced=0 / bluray_compat=0 / constrained_intra=0 / fgo=0 / bframes=8 / b_pyramid=2 / b_adapt=2 / b_bias=0 / direct=3 / weightb=1 / open_gop=0 / weightp=2 / keyint=250 / keyint_min=25 / scenecut=40 / intra_refresh=0 / rc_lookahead=60 / rc=2pass / mbtree=1 / bitrate=3230 / ratetol=1.0 / qcomp=0.60 / qpmin=0 / qpmax=69 / qpstep=4 / cplxblur=20.0 / qblur=0.5 / ip_ratio=1.40 / aq=1:1.00
Default : Yes
Forced : No
Audio #1
ID : 2
Format : MPEG Audio
Format version : Version 1
Format profile : Layer 2
Mode : Joint stereo
Mode extension : Intensity Stereo + MS Stereo
Codec ID : A_MPEG/L2
Codec ID/Hint : MP2
Duration : 26mn 24s
Bit rate mode : Constant
Bit rate : 192 Kbps
Channel(s) : 2 channels
Sampling rate : 48.0 KHz
Compression mode : Lossy
Stream size : 36.3 MiB (5%)
Title : Russian
Language : Russian
Default : Yes
Forced : No
Audio #2
ID : 3
Format : MPEG Audio
Format version : Version 1
Format profile : Layer 2
Mode : Joint stereo
Mode extension : Intensity Stereo + MS Stereo
Codec ID : A_MPEG/L2
Codec ID/Hint : MP2
Duration : 26mn 24s
Bit rate mode : Constant
Bit rate : 192 Kbps
Channel(s) : 2 channels
Sampling rate : 48.0 KHz
Compression mode : Lossy
Stream size : 36.3 MiB (5%)
Title : English
Language : English
Default : No
Forced : No
[Профиль] [ЛС]
Кто просматривает тему:

Форум Тема Автор Размер
365 365: Сети истории / Storia in Rete [выпуски 1-10] (Александра Джиганте / Alessandra Gigante, Фабио Андриола / Fabio Andriola) [2009-2013 г., окументально-постановочный, история, арх... skorpionN 8.01 GB
Animal Planet Animal Planet: Беловежская пуща: первозданный лес / The Primeval Forest of Belovezhskaya Pushcha (Anton Verstakov) [2015 г., Документальный, путешествия, флора, фауна, HDTVRip 720p] skorpionN 1.64 GB
BBC BBC: Большое железнодорожное путешествие по континенту / Great Continental Railway Journeys [сезон 4 серии 1-6 из 6] (Dave Minchin) [2015 г., Документальный, история, путешествия, HDTVRip 720p] skorpionN 8.85 GB
BBC BBC: Дэвид Бекхэм: Путешествие в неизведанное / David Beckham: Into the Unknown (2014) SATRip sergej644 1.23 GB
BBC BBC: Замки: История укреплений Британии / Castles: Britain's Fortified History [серии 1-3 из 3] (Ben Southwell) [2014 г., Документально-постановочный, история, археология, пу... skorpionN 4.39 GB
BBC BBC: Мир природы. Водопад Виктория - Гремящий дым / Natural World. Victoria Falls - The Smoke that Thunders [сезон 29 серия 2] (Тим Мартин / Tim Martin) [2009 г., Документальны... skorpionN 1.59 GB
BBC BBC: Путешествие во времени. (Шкала времени) Стоунхендж / Time watch. Stonehenge (Дэвид Стюарт / David Stewart) [2009 г., Документальный, история, археология, исследования, HDTVRip 720p] skorpionN 1.27 GB
BBC BBC: Сокровища Инда / Treasures of the Indus [серии 1-3 из 3] (Hugh Thomson) [2015 г., Документальный, путешествие, история, SATRip] skorpionN 1.81 GB
Показать сообщения:    

Текущее время: Сегодня 16:36

Часовой пояс: GMT



Вы не можете начинать темы
Вы не можете отвечать на сообщения
Вы не можете редактировать свои сообщения
Вы не можете удалять свои сообщения
Вы не можете голосовать в опросах
Вы не можете прикреплять файлы к сообщениям
Вы не можете скачивать файлы