Путешествие Гектора в поисках счастья / Hector and the Search for Happiness (2014) BDRip [720p] [Line]

 
Автор Сообщение

sergej644 ®

Пол:

Стаж: 4 года 11 месяцев

Сообщений: 6046

Откуда: Soviet Union



Награды: Нет

Торрент-статистика

Создавать темы 18-Янв-2015 02:09

[Цитировать]

-Путешествие Гектора в поисках счастья / Hector and the Search for Happiness (2014) BDRip- Производство: Великобритания, Германия, Канада, ЮАР
Жанр: Комедия, Приключения, Драма
Перевод: Дублированный (Чистый звук)
Субтитры: Отсутствуют
Дата мировой премьеры: 14 августа 2014
Дата российской премьеры: 11 декабря 2014
Режиссер: Питер Челсом
Продюсер: Клаус Доле
Актеры: Саймон Пегг, Тони Коллетт, Розамунд Пайк, Стеллан Скарсгард, Жан Рено, Кристофер Пламмер, Трейси Энн Оберман, Вероника Феррес, Барри Атсма, Минг Жао
Описание фильма:
Гектор — немного эксцентричный, но ужасно обаятельный лондонский психиатр — пребывает в состоянии кризиса, вызванного тем, что его пациенты не становятся счастливее, несмотря на все его усилия. И однажды Гектор решается самолично отправиться в путешествие по всему свету, чтобы узнать, существует ли счастье вообще и, что еще важнее, существует ли оно для него самого

Продолжительность: 01:59:38
Качество видео: BDRip
Видеокодек: MPEG-4 AVC/H.264
Битрейт видео: ~5205 Кбит/сек
Размер кадра: 1280x534
Аудио 1: Русский AC3, 6 ch, 384 Кбит/с
Аудио 2: Английский DTS, 6 ch, 1509 Кбит/с
Сэмпл: Скачать-

MediaInfo:

General
Complete name : E:\Hector and the Search for Happiness.BDRip,720p.mkv
Format : Matroska
File size : 6.05 GiB
Duration : 1h 59mn
Overall bit rate : 7 242 Kbps
Encoded date : UTC 2015-01-15 05:50:37
Writing application : mkvmerge v5.6.0 ('Kenya Kane') built on Jun 29 2012 15:01:44
Writing library : libebml v1.2.3 + libmatroska v1.3.0
Video
ID : 1
Format : AVC
Format/Info : Advanced Video Codec
Format profile : [url=mailto:High@L4.1]High@L4.1[/url]
Format settings, CABAC : Yes
Format settings, ReFrames : 4 frames
Muxing mode : Container profile=Unknown@4.1
Codec ID : V_MPEG4/ISO/AVC
Duration : 1h 59mn
Bit rate : 5 205 Kbps
Nominal bit rate : 5 500 Kbps
Width : 1 280 pixels
Height : 534 pixels
Display aspect ratio : 2.35:1
Frame rate : 24.000 fps
Resolution : 8 bits
Colorimetry : 4:2:0
Scan type : Progressive
Bits/(Pixel*Frame) : 0.317
Stream size : 4.35 GiB (72%)
Writing library : x264 core 142 r2479 dd79a61
Encoding settings : cabac=1 / ref=4 / deblock=1:-1:-1 / analyse=0x3:0x113 / me=umh / subme=8 / psy=1 / psy_rd=1.00:0.15 / mixed_ref=1 / me_range=16 / chroma_me=1 / trellis=1 / 8x8dct=1 / cqm=0 / deadzone=21,11 / fast_pskip=1 / chroma_qp_offset=-3 / threads=12 / lookahead_threads=2 / sliced_threads=0 / nr=0 / decimate=1 / interlaced=0 / bluray_compat=0 / constrained_intra=0 / bframes=3 / b_pyramid=2 / b_adapt=2 / b_bias=0 / direct=3 / weightb=1 / open_gop=0 / weightp=2 / keyint=240 / keyint_min=24 / scenecut=40 / intra_refresh=0 / rc_lookahead=50 / rc=abr / mbtree=1 / bitrate=5500 / ratetol=1.0 / qcomp=0.60 / qpmin=0 / qpmax=69 / qpstep=4 / vbv_maxrate=62500 / vbv_bufsize=78125 / nal_hrd=none / filler=0 / ip_ratio=1.40 / aq=1:1.00
Color primaries : BT.709-5, BT.1361, IEC 61966-2-4, SMPTE RP177
Transfer characteristics : BT.709-5, BT.1361
Matrix coefficients : BT.709-5, BT.1361, IEC 61966-2-4 709, SMPTE RP177
Audio #1
ID : 2
Format : AC-3
Format/Info : Audio Coding 3
Codec ID : A_AC3
Duration : 1h 59mn
Bit rate mode : Constant
Bit rate : 384 Kbps
Channel(s) : 6 channels
Channel positions : Front: L C R, Surround: L R, LFE
Sampling rate : 48.0 KHz
Video delay : -83ms
Stream size : 329 MiB (5%)
Title : Чистый звук
Language : Russian
Audio #2
ID : 3
Format : DTS
Format/Info : Digital Theater Systems
Codec ID : A_DTS
Duration : 1h 59mn
Bit rate mode : Constant
Bit rate : 1 510 Kbps
Channel(s) : 6 channels
Channel positions : Front: L C R, Surround: L R, LFE
Sampling rate : 48.0 KHz
Resolution : 24 bits
Stream size : 1.26 GiB (21%)
-Скриншоты:
Время раздачи: 24/7 - круглосуточно
[Профиль] [ЛС]
Кто просматривает тему:

Форум Тема Автор Размер
365 365: Сети истории / Storia in Rete [выпуски 1-10] (Александра Джиганте / Alessandra Gigante, Фабио Андриола / Fabio Andriola) [2009-2013 г., окументально-постановочный, история, арх... skorpionN 8.01 GB
Animal Planet Animal Planet: Беловежская пуща: первозданный лес / The Primeval Forest of Belovezhskaya Pushcha (Anton Verstakov) [2015 г., Документальный, путешествия, флора, фауна, HDTVRip 720p] skorpionN 1.64 GB
BBC BBC: Большое железнодорожное путешествие по континенту / Great Continental Railway Journeys [сезон 4 серии 1-6 из 6] (Dave Minchin) [2015 г., Документальный, история, путешествия, HDTVRip 720p] skorpionN 8.85 GB
BBC BBC: Дэвид Бекхэм: Путешествие в неизведанное / David Beckham: Into the Unknown (2014) SATRip sergej644 1.23 GB
BBC BBC: Замки: История укреплений Британии / Castles: Britain's Fortified History [серии 1-3 из 3] (Ben Southwell) [2014 г., Документально-постановочный, история, археология, пу... skorpionN 4.39 GB
BBC BBC: Мир природы. Водопад Виктория - Гремящий дым / Natural World. Victoria Falls - The Smoke that Thunders [сезон 29 серия 2] (Тим Мартин / Tim Martin) [2009 г., Документальны... skorpionN 1.59 GB
BBC BBC: Повседневные чудеса / Everyday Miracles [серии 1 из 2] (Петер Леонард / Peter Leonard) [2014 г., Документальный, технологии, инновации, дизайн, путешествия, HDTVRip 720p] skorpionN 1.76 GB
BBC BBC: Путешествие во времени. (Шкала времени) Стоунхендж / Time watch. Stonehenge (Дэвид Стюарт / David Stewart) [2009 г., Документальный, история, археология, исследования, HDTVRip 720p] skorpionN 1.27 GB
Показать сообщения:    

Текущее время: Сегодня 09:10

Часовой пояс: GMT



Вы не можете начинать темы
Вы не можете отвечать на сообщения
Вы не можете редактировать свои сообщения
Вы не можете удалять свои сообщения
Вы не можете голосовать в опросах
Вы не можете прикреплять файлы к сообщениям
Вы не можете скачивать файлы