Путеводитель по оттягам для мальчиков и девочек / The boys and girls guide to getting down (Пол Сапиано / Paul Sapiano) [2006, США, Молодежная комедия, DVDRip] VO (Andi)

 
Автор Сообщение

TorrentFilm ®

Пол:

Стаж: 2 года

Сообщений: 7741



Награды: Нет

Торрент-статистика

Создавать темы 09-Янв-2015 00:00

[Цитировать]

Путеводитель по оттягам для мальчиков и девочек / The boys and girls guide to getting down
Страна: США
Жанр: Молодежная комедия
Год выпуска: 2006
Продолжительность: 01:32:58
Перевод: Одноголосый закадровый Andi по субтитрам by Jose
Cубтитры: нет
Оригинальная аудиодорожка: нет
Режиссер: Пол Сапиано / Paul Sapiano
В ролях: Крикет Лей, Кэт Тернер, Доминик Парди, Бенни Сиарамелло, Селена Фара, Лейла Милани, Марио Диаз, Рави Пател, Джеф Девис, Стив Монро
Описание: Молодежь во всем мире отрывается на полную катушку - в ночных клубах, барах, на домашних вечеринках. Создатели фильма рассказывают о ночной жизни современного Лос-Анджелеса на примере 20 отвязных тусовщиков. Дельные советы и подробные примеры раскрывают секреты эффектной внешности; детально раскрыта тема приобретения и употребления алкоголя и наркотиков. Фильм широко известен и очень популярен за границей, российского же зрителя незаслуженно обошел стороной.
Сэмпл: http://multi-up.com/1025293
Качество видео: DVDRip
Формат видео: AVI
Видео: XviD, 560x304, 1,85:1, 23,976 fps, 908 kbps
Аудио: AC-3, 48 KHz, 128 kbps, 2 канала

MediaInfo

General
Complete name : L:\VO Andi\The.Boys.And.Girls.Guide.To.Getting.Down.DVDRip_VO Andi.avi
Format : AVI
Format/Info : Audio Video Interleave
File size : 696 MiB
Duration : 1h 32mn
Overall bit rate : 1 046 Kbps
Writing application : VirtualDubMod 1.5.10.2 (build 2540/release)
Writing library : VirtualDubMod build 2540/release
Video
ID : 0
Format : MPEG-4 Visual
Format profile : Advanced Simple@L5
Format settings, BVOP : 1
Format settings, QPel : No
Format settings, GMC : No warppoints
Format settings, Matrix : Default (H.263)
Muxing mode : Packed bitstream
Codec ID : XVID
Codec ID/Hint : XviD
Duration : 1h 32mn
Bit rate : 908 Kbps
Width : 560 pixels
Height : 304 pixels
Display aspect ratio : 1.85:1
Frame rate : 23.976 fps
Color space : YUV
Chroma subsampling : 4:2:0
Bit depth : 8 bits
Scan type : Progressive
Compression mode : Lossy
Bits/(Pixel*Frame) : 0.223
Stream size : 604 MiB (87%)
Writing library : XviD 1.1.2 (UTC 2006-11-01)
Audio
ID : 1
Format : AC-3
Format/Info : Audio Coding 3
Mode extension : CM (complete main)
Format settings, Endianness : Big
Codec ID : 2000
Duration : 1h 32mn
Bit rate mode : Constant
Bit rate : 128 Kbps
Channel count : 2 channels
Channel positions : Front: L R
Sampling rate : 48.0 KHz
Bit depth : 16 bits
Compression mode : Lossy
Stream size : 85.1 MiB (12%)
Alignment : Split accross interleaves
Interleave, duration : 42 ms (1.00 video frame)
Interleave, preload duration : 500 ms

Скриншот c названием фильма

Скриншоты

[Профиль] [ЛС]

Создавать темы 06-Авг-2015 22:48 (спустя 6 месяцев 28 дней)

Топик был перенесен из форума Фильмы до 2014 года в форум Фильмы до 2012 года
sergej644
 
Кто просматривает тему:

Форум Тема Автор Размер
Chanson (Шансон) VA - Путёвый шансон Сборник блатных суперхитов - 2015, MP3, 128 kbps Magnat 667 MB
Программы [Разное] Путеводитель по России v1.2 [Android 2.0+, RUS] TorrentFilm 5 MB
Документальные HD «Непутевые заметки» с Дмитрием Крыловым - ** выпусков - зима, весна [2015 г., Документальное кино, HDTV 1080i] TorrentFilm 1.03 GB
Документальные HD «Непутевые заметки» с Дмитрием Крыловым - ** выпусков - лето, осень [2015 г., Документальное кино, HDTV 1080i] TorrentFilm 1.06 GB
Документальные HD «Непутевые заметки» с Дмитрием Крыловым - 23 выпуска - лето, осень [2014 г., Документальное кино, HDTV 1080i] TorrentFilm 24.04 GB
Разная литература Алексеев Д. - Холодное оружие. Иллюстрированный путеводитель (2014) PDF достали все 28 MB
Компьютерная литература (Программирование) Дан Гукин/Дэн Гукин - Word 2013 For Dummies. Кратко ръководство./Word 2013 для чайников. Краткий путеводитель. [2014, PDF, BGR] TorrentFilm 36 MB
Компьютерная литература (Программирование) Дан Гукин/Дэн Гукин - Word 2013 For Dummies. Кратко ръководство./World 2013 для чайников. Краткий путеводитель [2014, DjVu,PDF, BGR] TorrentFilm 37 MB
Показать сообщения:    

Текущее время: Сегодня 14:53

Часовой пояс: GMT



Вы не можете начинать темы
Вы не можете отвечать на сообщения
Вы не можете редактировать свои сообщения
Вы не можете удалять свои сообщения
Вы не можете голосовать в опросах
Вы не можете прикреплять файлы к сообщениям
Вы не можете скачивать файлы