Пустынная бухта / Hollow Creek (Гусела Моро / Guisela Moro) [2016, США, Триллер, Криминал, Детектив, WEB-DLRip] DVO

 
Автор Сообщение

TorrentFilm ®

Пол:

Стаж: 1 год 11 месяцев

Сообщений: 7741



Награды: Нет

Торрент-статистика

Создавать темы 21-Мар-2016 00:09

[Цитировать]

-Пустынная бухтаHollow Creek -Страна: США
Жанр: Триллер, Криминал, Детектив
Год выпуска: 2016
Продолжительность: 01:56:27
Перевод: Профессиональный (двухголосый закадровый)
Cубтитры: нет
Оригинальная аудиодорожка: нет-Режиссер: Гусела Моро / Guisela Moro-В ролях: Стив Дарон, Гусела Моро, Берт Рейнолдс, Дэвид Осем, Тони Райхарт, Элин Дарне, Стив Альбертс, Демия Элифф, Шэрон Бло-Описание: Нью-Йоркский писатель Блейк Блэкман, в поисках вдохновения и душевного спокойствия со своей возлюбленной Анжеликой, убегает из шумного города, чтобы уединится в уютном горном домике. По прибытию, он узнает по местному телевидению, что в горах пропали несколько детей, плюс ко всему, его собака ведет себя очень странно. В итоге романтическая поездка, превращается в кошмар, после того, как исчезает Анжелика, а Блейк становится главным подозреваемым в её пропаже...- -Качество видео: WEB-DLRip
Формат видео: AVI
Видео: 720x400 (16:9), 23.976 fps, XviD MPEG-4, Simple@L5 ~ 1314 Kbps, 0.190 bit/pixel
Аудио: 48 kHz, AC3 Dolby Digital, 2/0 (L,R) ch, ~384 kbps-

MediaInfo

General
Complete name : D:\Фильмы\Pustuinnaya.Buhta.avi
Format : AVI
Format/Info : Audio Video Interleave
File size : 1.39 GiB
Duration : 1h 56mn
Overall bit rate : 1 707 Kbps
Writing application : VirtualDubMod 1.5.10.2 (build 2542/release)
Writing library : VirtualDubMod build 2542/release
Video
ID : 0
Format : MPEG-4 Visual
Format profile : Advanced Simple@L5
Format settings, BVOP : 2
Format settings, QPel : No
Format settings, GMC : No warppoints
Format settings, Matrix : Default (H.263)
Muxing mode : Packed bitstream
Codec ID : XVID
Codec ID/Hint : XviD
Duration : 1h 56mn
Bit rate : 1 314 Kbps
Width : 720 pixels
Height : 400 pixels
Display aspect ratio : 16:9
Frame rate : 23.976 (24000/1001) fps
Color space : YUV
Chroma subsampling : 4:2:0
Bit depth : 8 bits
Scan type : Progressive
Compression mode : Lossy
Bits/(Pixel*Frame) : 0.190
Stream size : 1.07 GiB (77%)
Writing library : XviD 66
Audio
ID : 1
Format : AC-3
Format/Info : Audio Coding 3
Mode extension : CM (complete main)
Format settings, Endianness : Big
Codec ID : 2000
Duration : 1h 56mn
Bit rate mode : Constant
Bit rate : 384 Kbps
Channel(s) : 2 channels
Channel positions : Front: L R
Sampling rate : 48.0 KHz
Frame rate : 31.250 fps (1536 spf)
Compression mode : Lossy
Stream size : 320 MiB (22%)
Alignment : Split accross interleaves
Interleave, duration : 42 ms (1.00 video frame)
Interleave, preload duratio : 500 ms

-

Скриншот c названием фильма

Скриншоты

-
[Профиль] [ЛС]
Кто просматривает тему:

Форум Тема Автор Размер
Nat Geo Wild Nat Geo Wild: Дикий Запад Африки. Жеребцы пустыни Намиб / Africa's Wild West. Stallions of the Namib Desert (Franz Leopold Schmelzer) [2014 г., Документальный, природа, флора, фауна, HDTVRip... skorpionN 1.59 GB
Nat Geo Wild Nat Geo Wild: Пустынные земли на Ближнем Востоке / Desert Lands Of The Middle East [сезон 1 серии 1-2 из 2] (Stewart Barlow) [2015 г., Документальный, научно-познавательный, HDTVRip 720p] skorpionN 3.04 GB
Nat Geo Wild Nat Geo Wild: Хоаниб — секреты пустынных слонов / Secrets of The Desert Elephants (Томас Беренд, Рози Кох / Thomas Behrend, Rosie Koch) [2013, Документальный, HDTVRip 720p] TorrentFilm 1.59 GB
Фильмы (HD DVD, Blu-ray и BDRemux) Белое солнце пустыни (1969) BDRemux [1080p] sergej644 13.29 GB
Фильмы (HD Rips | 720p, 1080p) Белое солнце пустыни (1969) BDRip 1080p sergej644 5.76 GB
Фильмы (DVD 5/9) Белое солнце пустыни (Владимир Мотыль) [1969, СССР, боевик, драма, мелодрама, комедия, приключения, военный, Blu ray > DVD5 (Custom)] + Sub Rus,Eng + Original Rus(AC3 5.1;AC3 1.0) reversefile 4.32 GB
Фильмы (HD DVD, Blu-ray и BDRemux) Белое солнце пустыни (Владимир Мотыль) [1969, СССР, боевик, драма, мелодрама, комедия, приключения, военный, Blu-ray disc 1080p] reversefile 20.59 GB
Фильмы (DVD 5/9) Белое солнце пустыни (Владимир Мотыль) [1969, СССР, Боевик, Драма, Мелодрама,Комедия, Приключения, DVD9] + Sub Eng, Rus, Fra, Deu, Esp, Ita, Ned, Port, Ara, Sve, Jap, Chi, Hebr / Original Rus /... TorrentFilm 7.36 GB
Показать сообщения:    

Текущее время: Сегодня 18:18

Часовой пояс: GMT



Вы не можете начинать темы
Вы не можете отвечать на сообщения
Вы не можете редактировать свои сообщения
Вы не можете удалять свои сообщения
Вы не можете голосовать в опросах
Вы не можете прикреплять файлы к сообщениям
Вы не можете скачивать файлы