Пустая тара / Vratne lahve (2007) BDRip 1080p by msltel | A

 
Автор Сообщение

sergej644 ®

Пол:

Стаж: 4 года 11 месяцев

Сообщений: 6037

Откуда: Soviet Union



Награды: Нет

Торрент-статистика

Создавать темы 26-Фев-2015 20:58

[Цитировать]

Год выпуска: 2007
Страна: Чехия, Великобритания, Дания
Жанр: драма, комедия
Продолжительность: 01:43:32
Перевод: авторский
Субтитры: русские
Режиссёр: Ян Сверак
В ролях: Зденек Сверак, Татьяна Вильгельмова, Даниэла Коларжова, Иржи Махачек, Павел Ландовский, Ян Бударш, Нела Боудова, Мирослав Таборский, Вера Тиханкова, Божидара Турзоновова, Ондржей Ветхи
Описание: Пожилой учитель окончательно решил покинуть преподавание, но не может примириться с позицией проведения своей старости, сидя на лавочке в парке. Он полон идей, активности и мальчишеских страстей. Вопреки возражениям своей жены, которая с сарказмом комментирует всю деятельность своего мужа, поступает в бригаду по приёму тары в небольшой супермаркет. Маленькое помещение, где встречаются бутылки с бутылками и люди с людьми, - самобытный микромир, полный трагических судеб...

Качество: BDRip 1080p
Формат: MKV
Видео кодек: H.264
Видео: 15.9 Mбит/с, 1920x1038, 23.976 кадра/с, 0.332 bpp
Аудио 1: русский, AC3, 224 kbps, 2 ch, 48 kHz [авторский, Александр Кузнецов]
Аудио 2: чешский, DTS, 1509 kbps, 6 ch, 48 kHz [оригинал]

Награды

Карловы Вары, 2007 год
Победитель (2):
Особое упоминание (Зденек Сверак)
Приз зрительских симпатий
Номинации (1):
Хрустальный глобус

MediaInfo

Общее
Уникальный идентификатор : 209858943412982860406372553173480493728 (0x9DE15CC11CA255B1B965EFC93D57D2A0)
Полное имя : D:VideoPustaja tara.2007.BDRip.1080p.mkv
Формат : Matroska
Версия формата : Version 4 / Version 2
Размер файла : 13,0 Гбайт
Продолжительность : 1 ч. 43 м.
Общий поток : 18,0 Мбит/сек
Дата кодирования : UTC 2015-02-16 10:19:03
Программа кодирования : mkvmerge v7.6.0 ('Garden of Dreams') 64bit built on Feb 8 2015 13:04:34
Библиотека кодирования : libebml v1.3.1 + libmatroska v1.4.2
_STATISTICS_WRITING_APP : mkvmerge v7.6.0 ('Garden of Dreams') 64bit built on Feb 8 2015 13:04:34
_STATISTICS_WRITING_DATE_UTC : 2015-02-16 10:19:03
_STATISTICS_TAGS : BPS DURATION NUMBER_OF_FRAMES NUMBER_OF_BYTES
DURATION : 01:43:32.395000000
NUMBER_OF_FRAMES : 582412
NUMBER_OF_BYTES : 1171812944
Видео
Идентификатор : 1
Формат : AVC
Формат/Информация : Advanced Video Codec
Профиль формата : High@L4.1
Параметр CABAC формата : Да
Параметр ReFrames формата : 4 кадра
Идентификатор кодека : V_MPEG4/ISO/AVC
Продолжительность : 1 ч. 43 м.
Битрейт : 15,9 Мбит/сек
Ширина : 1920 пикселей
Высота : 1038 пикселей
Соотношение сторон : 1,85:1
Режим частоты кадров : Постоянный
Частота кадров : 23,976 кадра/сек
Цветовое пространство : YUV
Субдискретизация насыщенности : 4:2:0
Битовая глубина : 8 бит
Тип развёртки : Прогрессивная
Бит/(Пиксели*Кадры) : 0.332
Размер потока : 11,5 Гбайт (88%)
Библиотека кодирования : x264 core 142 r2431 ac76440
Настройки программы : cabac=1 / ref=4 / deblock=1:-1:-1 / analyse=0x3:0x113 / me=umh / subme=10 / psy=1 / psy_rd=1.00:0.15 / mixed_ref=1 / me_range=32 / chroma_me=1 / trellis=2 / 8x8dct=1 / cqm=0 / deadzone=21,11 / fast_pskip=1 / chroma_qp_offset=-3 / threads=6 / lookahead_threads=1 / sliced_threads=0 / nr=0 / decimate=1 / interlaced=0 / bluray_compat=0 / constrained_intra=0 / bframes=8 / b_pyramid=2 / b_adapt=2 / b_bias=0 / direct=3 / weightb=1 / open_gop=0 / weightp=2 / keyint=230 / keyint_min=23 / scenecut=40 / intra_refresh=0 / rc_lookahead=40 / rc=crf / mbtree=0 / crf=18.0 / qcomp=0.60 / qpmin=0 / qpmax=69 / qpstep=4 / vbv_maxrate=40000 / vbv_bufsize=50000 / crf_max=0.0 / nal_hrd=none / filler=0 / ip_ratio=1.40 / pb_ratio=1.30 / aq=1:1.00
Язык : Czech
Default : Да
Forced : Нет
DURATION : 01:43:32.457000000
NUMBER_OF_FRAMES : 148950
NUMBER_OF_BYTES : 12596854259
_STATISTICS_WRITING_APP : mkvmerge v7.6.0 ('Garden of Dreams') 64bit built on Feb 8 2015 13:04:34
_STATISTICS_WRITING_DATE_UTC : 2015-02-16 10:19:03
_STATISTICS_TAGS : BPS DURATION NUMBER_OF_FRAMES NUMBER_OF_BYTES
Аудио #1
Идентификатор : 2
Формат : AC-3
Формат/Информация : Audio Coding 3
Расширение режима : CM (complete main)
Параметр Endianness формата : Big
Идентификатор кодека : A_AC3
Продолжительность : 1 ч. 43 м.
Вид битрейта : Постоянный
Битрейт : 224 Кбит/сек
Каналы : 2 канала
Расположение каналов : Front: L R
Частота : 48,0 КГц
Битовая глубина : 16 бит
Метод сжатия : С потерями
Размер потока : 166 Мбайт (1%)
Заголовок : AVO (Александр Кузнецов)
Язык : Russian
Default : Да
Forced : Нет
Аудио #2
Идентификатор : 3
Формат : DTS
Формат/Информация : Digital Theater Systems
Режим : 16
Параметр Endianness формата : Big
Идентификатор кодека : A_DTS
Продолжительность : 1 ч. 43 м.
Вид битрейта : Постоянный
Битрейт : 1509 Кбит/сек
Каналы : 6 каналов
Расположение каналов : Front: L C R, Side: L R, LFE
Частота : 48,0 КГц
Битовая глубина : 24 бит
Метод сжатия : С потерями
Размер потока : 1,09 Гбайт (8%)
Заголовок : Original
Язык : Czech
Default : Нет
Forced : Нет
Текст
Идентификатор : 4
Формат : UTF-8
Идентификатор кодека : S_TEXT/UTF8
Идентификатор кодека/Информация : UTF-8 Plain Text
Заголовок : русский
Язык : Russian
Default : Нет
Forced : Нет

Скриншоты

[Профиль] [ЛС]
Показать сообщения:    

Текущее время: Сегодня 15:59

Часовой пояс: GMT



Вы не можете начинать темы
Вы не можете отвечать на сообщения
Вы не можете редактировать свои сообщения
Вы не можете удалять свои сообщения
Вы не можете голосовать в опросах
Вы не можете прикреплять файлы к сообщениям
Вы не можете скачивать файлы