Пустая корона / The Hollow Crown [S02] (2016) BDRip 720p | L

 
Автор Сообщение

достали все ®

Пол:

Стаж: 1 год 8 месяцев

Сообщений: 6565



Награды: 12 (Подробнее)

Mega Releaser 2 (Количество: 1) Mega Seeder 5 (Количество: 1) Mega Seeder 2 (Количество: 1)
Торрент-статистика

Создавать темы 24-Авг-2016 13:54

[Цитировать]

Название: Пустая корона
Оригинальное название: The Hollow Crown
Год выхода: 2016
Страна: Великобритания
Студия: Neal Street Productions, NBC Universal Television, WNET Thirteen
Продолжительность: 01:56:18, 02:08:13, 02:14:43
Жанр: драма, история, ...
Режиссер: Доминик Кук, Ричард Эйр, Руперт Гулд, ...
В ролях: Энтон Лессер, Джими Джеймс, Саймон Расселл Бил, Том Хиддлстон, Том Джорджсон, Джеймс Лоренсон, Джули Уолтерс, Джэми Хилл, Джон Маккэй, Стивен МакДэйд, ...
Перевод:
- Любительский (многоголосный, закадровый) BaibaKo
- Субтитры
О фильме: Цикл экранизаций исторических пьес Уильяма Шекспира от телеканала ВВС Two под общим названием «Пустая корона». В цикл входят фильмы «Ричард II», «Генрих IV. Часть 1», «Генрих IV. Часть 2» и «Генрих V». История о семье, политике и власти. Сериал рассказывает о взлете и падении трех королей и о том, как их судьбы формировали историю. Ричард II — тщеславный, самодовольный человек, правит, нимало не заботясь о благосостоянии подданных. В конечном итоге его свергает его кузен Болингброк, взошедший на престол как Генрих IV. Царствование Генриха омрачено чувством вины из-за смерти Ричарда, гражданской войной и опасениями за сына Хэла. Когда Хэл восходит на престол как Генрих V, ему остается только похоронить в прошлом призрак отца и бороться со своими собственными демонами…

Кодек: x264
Качество: BDRip 720p
Видео: 1280x720 , ~4500 kbps, 23,976 fps
Аудио #1: AC-3, 6 ch, 384 kbps (Rus) - BaibaKo
Аудио #2: DTS, 6 ch, 1509 kbps (Eng)
Субтитры: Русские, Английские

MediaInfo

Общее
Уникальный идентификатор : 178480571403856172694069767340904351760 (0x86461B91F3C024BC904CF8D0901F0810)
Полное имя : The Hollow Crown S02 E01 2016 BDRip 720p BaibaKo.mkv
Формат : Matroska
Версия формата : Version 2
Размер файла : 5,78 Гбайт
Продолжительность : 1 ч. 56 м.
Общий поток : 7110 Кбит/сек
Дата кодирования : UTC 2016-08-12 09:17:58
Программа кодирования : mkvmerge v4.0.0 ('The Stars were mine') сборка от Jun 6 2010 16:18:42
Библиотека кодирования : libebml v1.0.0 + libmatroska v1.0.0
Видео
Идентификатор : 1
Формат : AVC
Формат/Информация : Advanced Video Codec
Профиль формата : High@L4.1
Параметр CABAC формата : Да
Параметр ReFrames формата : 5 кадров
Идентификатор кодека : V_MPEG4/ISO/AVC
Продолжительность : 1 ч. 56 м.
Битрейт : 5215 Кбит/сек
Ширина : 1280 пикселей
Высота : 720 пикселей
Соотношение сторон : 16:9
Режим частоты кадров : Постоянный
Частота кадров : 23,976 кадра/сек
Цветовое пространство : YUV
Субдискретизация насыщенности : 4:2:0
Битовая глубина : 8 бит
Тип развёртки : Прогрессивная
Бит/(Пиксели*Кадры) : 0.236
Размер потока : 4,12 Гбайт (71%)
Библиотека кодирования : x264 core 148 r2692 64f4e24
Настройки программы : cabac=1 / ref=5 / deblock=1:-3:-3 / analyse=0x3:0x113 / me=umh / subme=8 / psy=1 / psy_rd=1.00:0.00 / mixed_ref=1 / me_range=16 / chroma_me=1 / trellis=1 / 8x8dct=1 / cqm=0 / deadzone=21,11 / fast_pskip=1 / chroma_qp_offset=-2 / threads=22 / lookahead_threads=3 / sliced_threads=0 / nr=0 / decimate=1 / interlaced=0 / bluray_compat=0 / constrained_intra=0 / bframes=3 / b_pyramid=2 / b_adapt=2 / b_bias=0 / direct=3 / weightb=1 / open_gop=0 / weightp=2 / keyint=240 / keyint_min=24 / scenecut=40 / intra_refresh=0 / rc_lookahead=50 / rc=2pass / mbtree=1 / bitrate=5215 / ratetol=1.0 / qcomp=0.60 / qpmin=0 / qpmax=69 / qpstep=4 / cplxblur=20.0 / qblur=0.5 / ip_ratio=1.40 / aq=3:0.80
Язык : English
Default : Нет
Forced : Нет
Аудио #1
Идентификатор : 2
Формат : AC-3
Формат/Информация : Audio Coding 3
Расширение режима : CM (complete main)
Параметр Endianness формата : Big
Идентификатор кодека : A_AC3
Продолжительность : 1 ч. 56 м.
Вид битрейта : Постоянный
Битрейт : 384 Кбит/сек
Каналы : 6 каналов
Расположение каналов : Front: L C R, Side: L R, LFE
Частота : 48,0 КГц
Битовая глубина : 16 бит
Метод сжатия : С потерями
Размер потока : 319 Мбайт (5%)
Заголовок : BaibaKo
Язык : Russian
Default : Нет
Forced : Нет
Аудио #2
Идентификатор : 3
Формат : DTS
Формат/Информация : Digital Theater Systems
Режим : 16
Параметр Endianness формата : Big
Идентификатор кодека : A_DTS
Продолжительность : 1 ч. 56 м.
Вид битрейта : Постоянный
Битрейт : 1509 Кбит/сек
Каналы : 6 каналов
Расположение каналов : Front: L C R, Side: L R, LFE
Частота : 48,0 КГц
Битовая глубина : 24 бит
Метод сжатия : С потерями
Задержка видео : 11 мс.
Размер потока : 1,23 Гбайт (21%)
Язык : English
Default : Нет
Forced : Нет
Текст #1
Идентификатор : 4
Формат : UTF-8
Идентификатор кодека : S_TEXT/UTF8
Идентификатор кодека/Информация : UTF-8 Plain Text
Язык : Russian
Default : Нет
Forced : Нет
Текст #2
Идентификатор : 5
Формат : UTF-8
Идентификатор кодека : S_TEXT/UTF8
Идентификатор кодека/Информация : UTF-8 Plain Text
Язык : English
Default : Нет
Forced : Нет

[Профиль] [ЛС]
Показать сообщения:    

Текущее время: Сегодня 10:33

Часовой пояс: GMT



Вы не можете начинать темы
Вы не можете отвечать на сообщения
Вы не можете редактировать свои сообщения
Вы не можете удалять свои сообщения
Вы не можете голосовать в опросах
Вы не можете прикреплять файлы к сообщениям
Вы не можете скачивать файлы