Пункт назначения 4 в 3Д / Final Destination 3D (Дэвид Р. Эллис / David R. Ellis) [2009, Ужасы, триллер, HDRip-AVC] Anaglyph / Анаглиф

 
Автор Сообщение

TorrentFilm ®

Пол:

Стаж: 1 год 11 месяцев

Сообщений: 7741



Награды: Нет

Торрент-статистика

Создавать темы 03-Янв-2016 00:07

[Цитировать]

Пункт назначения 4 в 3D / Final Destination 3D
Год выпуска: 2009
Страна: США
Студия: New Line Cinema
Жанр: Ужасы, триллер
Продолжительность: 01:21:46
Перевод: Профессиональный (дублированный)
Русские субтитры: есть
Режиссер на русском: Дэвид Р. Эллис
Режиссер на английском: David R. Ellis
В ролях: Криста Аллен, Ник Зано, Бобби Кампо, Шантель Ван Сантен, Майкелти Уильямсон, Стефани Онор, Хейли Уэбб, Ребекка Ньюман, Эндрю Фисцелла, Билли Слотер
Описание: История на этот раз вращается вокруг Ника О`Бэннона, к молодому человеку приходит видение — на автогонках произойдет ужасная трагедия, жертвами которой станут его друзья и он сам. Как и прежде группе счастливчиков, благодаря Нику, удается выжить, но смерть вовсе не спешит вычеркивать их из своего списка.

Дополнительная информация по релизу: Обсуждение "Как и на чём смотреть 3Д"
Для просмотра 3D требуются анаглифные очки

Сэмпл: http://multi-up.com/460572
Качество: HDrip
Контейнер: MKV
Формат 3D: Анаглиф red-cyan
Видео кодек: x264
Аудио кодек: AC3
Видео: MPEG-4 AVC, 2343 Кбит/с, 1024x424
Аудио: AC3, 6 ch, 448 Кбит/с, 48 kHz - Русский [Дублированный]
Субтитры: Русские (надписи) - вшитые, неотключаемые

MediaInfo

Unique ID : 219627990959281123086863072902434372710 (0xA53ACFFC2900FBD09CE08FB7E855BC66)
Complete name : H:\1\Punkt.naznachenija.4.3D.2009.x264.HDRip(AVC).mkv
Format : Matroska
Format version : Version 2
File size : 1.62 GiB
Duration : 1h 21mn
Overall bit rate : 2 843 Kbps
Movie name : Rip by Romeo [NOLIMITS-TEAM.RU]
Encoded date : UTC 2012-10-19 23:49:53
Writing application : mkvmerge v5.5.0 ('Healer') built on Apr 24 2012 23:47:03
Writing library : libebml v1.2.3 + libmatroska v1.3.0
Video
ID : 1
Format : AVC
Format/Info : Advanced Video Codec
Format profile : High@L3.1
Format settings, CABAC : Yes
Format settings, ReFrames : 8 frames
Muxing mode : Header stripping
Codec ID : V_MPEG4/ISO/AVC
Duration : 1h 21mn
Bit rate : 2 338 Kbps
Nominal bit rate : 2 498 Kbps
Width : 1 024 pixels
Height : 424 pixels
Display aspect ratio : 2.40:1
Frame rate : 23.976 fps
Color space : YUV
Chroma subsampling : 4:2:0
Bit depth : 8 bits
Scan type : Progressive
Bits/(Pixel*Frame) : 0.225
Stream size : 1.34 GiB (82%)
Writing library : x264 core 92 r1510 33d382a
Encoding settings : cabac=1 / ref=8 / deblock=1:-1:-1 / analyse=0x3:0x133 / me=umh / subme=7 / psy=1 / psy_rd=1.00:0.10 / mixed_ref=1 / me_range=16 / chroma_me=1 / trellis=2 / 8x8dct=1 / cqm=0 / deadzone=21,11 / fast_pskip=0 / chroma_qp_offset=-3 / threads=3 / sliced_threads=0 / nr=0 / decimate=1 / interlaced=0 / constrained_intra=0 / bframes=3 / b_pyramid=2 / b_adapt=2 / b_bias=0 / direct=1 / wpredb=1 / wpredp=2 / keyint=250 / keyint_min=25 / scenecut=40 / intra_refresh=0 / rc_lookahead=50 / rc=abr / mbtree=1 / bitrate=2498 / ratetol=1.0 / qcomp=0.60 / qpmin=10 / qpmax=51 / qpstep=4 / ip_ratio=1.40 / aq=1:1.00
Default : Yes
Forced : No
Audio
ID : 2
Format : AC-3
Format/Info : Audio Coding 3
Mode extension : CM (complete main)
Format settings, Endianness : Big
Muxing mode : Header stripping
Codec ID : A_AC3
Duration : 1h 21mn
Bit rate mode : Constant
Bit rate : 448 Kbps
Channel(s) : 6 channels
Channel positions : Front: L C R, Side: L R, LFE
Sampling rate : 48.0 KHz
Bit depth : 16 bits
Compression mode : Lossy
Stream size : 262 MiB (16%)
Title : Профессиональный (полное дублирование)
Language : Russian
Default : Yes
Forced : No
Text
ID : 3
Format : UTF-8
Codec ID : S_TEXT/UTF8
Codec ID/Info : UTF-8 Plain Text
Title : Русские (надписи)
Language : Russian
Default : Yes
Forced : No

Скриншоты

[Профиль] [ЛС]
Показать сообщения:    

Текущее время: Сегодня 20:05

Часовой пояс: GMT



Вы не можете начинать темы
Вы не можете отвечать на сообщения
Вы не можете редактировать свои сообщения
Вы не можете удалять свои сообщения
Вы не можете голосовать в опросах
Вы не можете прикреплять файлы к сообщениям
Вы не можете скачивать файлы