Пульс 2 / Pulse 2: Afterlife (Джоэль Сойзон / Joel Soisson) [2008 г., США, ужасы, фантастика, DVDRip] DVO (Электричка) + Original (Eng) + Sub (Eng)

 
Автор Сообщение

TorrentFilm ®

Пол:

Стаж: 2 года

Сообщений: 7741



Награды: Нет

Торрент-статистика

Создавать темы 16-Фев-2015 00:01

[Цитировать]

Пульс 2 / Pulse 2: Afterlife-
Год выпуска: 2008
Страна: США
Жанр: ужасы, фантастика
Продолжительность: 01:28:45
Перевод: Любительский (двухголосый, закадровый) Электричка + Оригинальная звуковая дорожка – отдельно
Субтитры: Английские [SDH] (*.srt)-Режиссер: Джоэль Сойзон / Joel Soisson-В ролях: Тодд Гибенхейн (Man in Red - Thomas Ziegler), Дайан Голднер (Mrs. Sorenstram), Рэйчел Робинсон (Alley Victim), Доди Браун (Alley Phantom), Джорджина Райлэнс (Michelle), Джейми Бамбер (Stephen), Энди Мартин (Suicidal Jumper), Клаудия Темплтон (Lisa), Ли Гарлингтон (Aunt Carmen), Карли Скотт Коллинз (Justine), Боти Блисс (Marta), Джон Гулагер (Man on Bridge)-Описание: Мир был навсегда изменен вторжением призраков, передвигающихся по электрическим сетям и убивая все больше и больше людей. Человечество на грани исчезновения, многие города оставлены, а все электронные технологии разрушены. И во всем этом хаoсе разведенные герои пытаются найти свою дочь...-Автор рипа: denashekkk-
MPAA: R - Лицам до 17 лет обязательно присутствие взрослого-Качество: DVDRip (DVD5)
Формат: AVI
Видео: 704x400 (1.76:1), 23.976 fps, XviD build 66 ~1891 kbps avg, 0.28 bit/pixel
Аудио #1: 48 kHz, AC3 Dolby Digital, 3/2 (L,C,R,l,r) + LFE ch, ~448 kbps |DVO, Электричка|
Аудио #2: 48 kHz, AC3 Dolby Digital, 3/2 (L,C,R,l,r) + LFE ch, ~448 kbps |ENG| (отдельным файлом)
Размер: 1490.90 Mb (1/3 DVD5)
-

MediaInfo

General
Complete name                            : C:\Downloads\Puls.2.2008.RUS.DVDRip.XviD.AC3.-denashekkk\Puls.2.2008.RUS.DVDRip.XviD.AC3.-denashekkk.avi
Format                                   : AVI
Format/Info                              : Audio Video Interleave
File size                                : 1.46 GiB
Duration                                 : 1h 28mn
Overall bit rate                         : 2 349 Kbps
Movie name                               : Пульс 2 / Pulse 2: Afterlife (2008)
Director                                 : denashekkk (DVD5)
Writing application                      : VirtualDubMod 1.5.10.2 (build 2542/release)
Video
ID                                       : 0
Format                                   : MPEG-4 Visual
Format profile                           : Advanced Simple@L5
Format settings, BVOP                    : 2
Format settings, QPel                    : No
Format settings, GMC                     : No warppoints
Format settings, Matrix                  : Custom
Codec ID                                 : XVID
Codec ID/Hint                            : XviD
Duration                                 : 1h 28mn
Bit rate                                 : 1 891 Kbps
Width                                    : 704 pixels
Height                                   : 400 pixels
Display aspect ratio                     : 16:9
Frame rate                               : 23.976 fps
Color space                              : YUV
Chroma subsampling                       : 4:2:0
Bit depth                                : 8 bits
Scan type                                : Progressive
Compression mode                         : Lossy
Bits/(Pixel*Frame)                       : 0.280
Stream size                              : 1.17 GiB (81%)
Writing library                          : XviD 66
Audio
ID                                       : 1
Format                                   : AC-3
Format/Info                              : Audio Coding 3
Mode extension                           : CM (complete main)
Format settings, Endianness              : Big
Codec ID                                 : 2000
Duration                                 : 1h 28mn
Bit rate mode                            : Constant
Bit rate                                 : 448 Kbps
Channel(s)                               : 6 channels
Channel positions                        : Front: L C R, Side: L R, LFE
Sampling rate                            : 48.0 KHz
Bit depth                                : 16 bits
Compression mode                         : Lossy
Stream size                              : 284 MiB (19%)
Alignment                                : Split accross interleaves
Interleave, duration                     : 42 ms (1.00 video frame)
Interleave, preload duration             : 500 ms
Title                                    : DVO [Rus] Elektrichka

-

Сравнение

Замена.

-

Скриншот c названием фильма


-

Скриншоты


-
[Профиль] [ЛС]

Создавать темы 06-Авг-2015 22:44 (спустя 5 месяцев 18 дней)

Топик был перенесен из форума Фильмы до 2014 года в форум Фильмы до 2012 года
sergej644
 

Создавать темы 12-Июн-2016 08:51 (спустя 1 год 3 месяца)

Топик был перенесен из форума Фильмы 2011 года в форум Фильмы 2006-2008 года
Russian Mafia
 
Показать сообщения:    

Текущее время: Сегодня 02:26

Часовой пояс: GMT



Вы не можете начинать темы
Вы не можете отвечать на сообщения
Вы не можете редактировать свои сообщения
Вы не можете удалять свои сообщения
Вы не можете голосовать в опросах
Вы не можете прикреплять файлы к сообщениям
Вы не можете скачивать файлы