Пульс / Pulse (Джим Сонзеро / Jim Sonzero) [2006 г., США, ужасы, фантастика, фэнтези, триллер, детектив, BDRip-AVC] Dub + Original Eng + Sub (Rus, Eng)

 
Автор Сообщение

reversefile ®

Пол:

Стаж: 4 года 5 месяцев

Сообщений: 842

Откуда: ReverseFile.org



Награды: Нет

Торрент-статистика

Создавать темы 13-Авг-2014 10:02

[Цитировать]

-Пульс / Pulse«Вторжение началось» Страна: США
Студия: Distant Horizons, Neo Art & Logic, The Weinstein Company LLC
Жанр: Ужасы, фантастика, фэнтези, триллер, детектив
Год выпуска: 2006
Продолжительность: 01:28:10-Перевод: Профессиональный (полное дублирование)
Оригинальная аудиодорожка: английский
Cубтитры: русские, английские
Режиссер: Джим Сонзеро / Jim Sonzero
В ролях: Кристен Белл, Иен Сомерхолдер, Кристина Милиан, Рик Гонсалес, Джонатан Такер, Сэмм Ливайн, Октавия Спенсер, Рон Рифкин, Джозеф Гатт, Кел О’Нил, Зэк Гренье, Рики Линдхоум
Описание: Представьте себе, что беспроводные технологии могут связывать человека не только с кем-либо находящимся на другом конце земного шара, но и с другим миром. Миром мертвых. Представьте, что ваш сотовый телефон или ваша электронная почта - дверь. И когда вы звоните по мобильному, или работаете с e-mail, эта дверь открывается, и в наш мир проникают они. Они уже умерли. И они могут сделать так, что умрете и вы. Спрятаться негде, убежать невозможно. Вы уже заражены.-
Сэмпл: скачать-Автор рипа: Elheym
Качество: BDRip-AVC (источник: / Blu-ray Remux / 1080p)
Контейнер: MKV
Видео: 1024x426 (2.40:1), 23.976 fps, MPEG-4 AVC, ~2645 kbps avg, 0.253 bit/pixel
Аудио #1: Русский: АС3, 5.1, 48 kHz, ~448 Кбит/с | Профессиональный (полное дублирование) |
Аудио #2: Английский: АС3, 5.1, 48 kHz, ~448 Кбит/с | Оригинал |
Субтитры: Русские (полные), Английские (полные, полные SDH)
Главы: Присутствуют, сохранены оригинальные
Размер: 2.18 GB

MediaInfo

Уникальный идентификатор : 228474804300508681388264080285886635283 (0xABE2A58F0D13E48CA50ABCA637A4DD13)
Полное имя : Pulse.2006.DUAL.BDRip-AVC.x264.AC3.-HQCLUB.mkv
Формат : Matroska
Версия формата : Version 2
Размер файла : 2,18 Гбайт
Продолжительность : 1 ч. 28 м.
Общий поток : 3542 Кбит/сек
Дата кодирования : UTC 2014-08-09 13:59:40
Программа кодирования : mkvmerge v5.2.0 ('I can't explain') built on Dec 18 2011 18:12:03
Библиотека кодирования : libebml v1.2.3 + libmatroska v1.3.0
Видео
Идентификатор : 1
Формат : AVC
Формат/Информация : Advanced Video Codec
Профиль формата : High@L4.1
Параметр CABAC формата : Да
Параметр ReFrames формата : 15 кадров
Идентификатор кодека : V_MPEG4/ISO/AVC
Продолжительность : 1 ч. 28 м.
Битрейт : 2645 Кбит/сек
Ширина : 1024 пикселя
Высота : 426 пикселей
Соотношение сторон : 2,40:1
Режим частоты кадров : Постоянный
Частота кадров : 23,976 кадра/сек
Цветовое пространство : YUV
Субдискретизация насыщенности : 4:2:0
Битовая глубина : 8 бит
Тип развёртки : Прогрессивная
Бит/(Пиксели*Кадры) : 0.253
Размер потока : 1,59 Гбайт (73%)
Заголовок : Пульс / Pulse (2006) BDRip-AVC by HQCLUB [Elheym]
Библиотека кодирования : x264 core 142 r2431 ac76440
Настройки программы : cabac=1 / ref=15 / deblock=1:-3:-2 / analyse=0x3:0x113 / me=umh / subme=11 / psy=1 / psy_rd=1.00:0.00 / mixed_ref=1 / me_range=32 / chroma_me=1 / trellis=2 / 8x8dct=1 / cqm=0 / deadzone=21,11 / fast_pskip=1 / chroma_qp_offset=-4 / threads=6 / lookahead_threads=1 / sliced_threads=0 / nr=0 / decimate=1 / interlaced=0 / bluray_compat=0 / constrained_intra=0 / bframes=14 / b_pyramid=2 / b_adapt=2 / b_bias=0 / direct=3 / weightb=1 / open_gop=0 / weightp=2 / keyint=240 / keyint_min=23 / scenecut=40 / intra_refresh=0 / rc_lookahead=40 / rc=2pass / mbtree=1 / bitrate=2645 / ratetol=1.0 / qcomp=0.60 / qpmin=10 / qpmax=69 / qpstep=4 / cplxblur=20.0 / qblur=0.5 / vbv_maxrate=50000 / vbv_bufsize=62500 / nal_hrd=none / filler=0 / ip_ratio=1.40 / aq=1:0.90
Язык : English
Default : Да
Forced : Нет
Аудио #1
Идентификатор : 2
Формат : AC-3
Формат/Информация : Audio Coding 3
Расширение режима : CM (complete main)
Параметр Endianness формата : Big
Идентификатор кодека : A_AC3
Продолжительность : 1 ч. 28 м.
Вид битрейта : Постоянный
Битрейт : 448 Кбит/сек
Каналы : 6 каналов
Расположение каналов : Front: L C R, Side: L R, LFE
Частота : 48,0 КГц
Битовая глубина : 16 бит
Метод сжатия : С потерями
Размер потока : 283 Мбайт (13%)
Заголовок : АС3 5.1 @ 448 kbps - Dub
Язык : Russian
Default : Нет
Forced : Нет
Аудио #2
Идентификатор : 3
Формат : AC-3
Формат/Информация : Audio Coding 3
Расширение режима : CM (complete main)
Параметр Endianness формата : Big
Идентификатор кодека : A_AC3
Продолжительность : 1 ч. 28 м.
Вид битрейта : Постоянный
Битрейт : 448 Кбит/сек
Каналы : 6 каналов
Расположение каналов : Front: L C R, Side: L R, LFE
Частота : 48,0 КГц
Битовая глубина : 16 бит
Метод сжатия : С потерями
Размер потока : 283 Мбайт (13%)
Заголовок : АС3 5.1 @ 448 kbps - Dub
Язык : English
Default : Нет
Forced : Нет
Текст #1
Идентификатор : 4
Формат : UTF-8
Идентификатор кодека : S_TEXT/UTF8
Идентификатор кодека/Информация : UTF-8 Plain Text
Заголовок : Full
Язык : Russian
Default : Нет
Forced : Нет
Текст #2
Идентификатор : 5
Формат : UTF-8
Идентификатор кодека : S_TEXT/UTF8
Идентификатор кодека/Информация : UTF-8 Plain Text
Заголовок : Full
Язык : English
Default : Нет
Forced : Нет
Текст #3
Идентификатор : 6
Формат : UTF-8
Идентификатор кодека : S_TEXT/UTF8
Идентификатор кодека/Информация : UTF-8 Plain Text
Заголовок : Full SDH
Язык : English
Default : Нет
Forced : Нет
Меню
00:00:00.000 : :Chapter 01
00:06:08.409 : :Chapter 02
00:11:35.361 : :Chapter 03
00:16:50.592 : :Chapter 04
00:20:42.616 : :Chapter 05
00:25:13.053 : :Chapter 06
00:30:08.765 : :Chapter 07
00:37:05.348 : :Chapter 08
00:40:38.727 : :Chapter 09
00:44:49.520 : :Chapter 10
00:50:19.850 : :Chapter 11
00:53:03.430 : :Chapter 12
00:56:49.948 : :Chapter 13
01:02:08.266 : :Chapter 14
01:09:31.208 : :Chapter 15
01:18:45.846 : :Chapter 16
01:28:09.867 : :Chapter 17

x264 log

x264 [info]: frame I:929 Avg QP:15.59 size: 61953
x264 [info]: frame P:26447 Avg QP:18.45 size: 23891
x264 [info]: frame B:99462 Avg QP:20.43 size: 10645
x264 [info]: consecutive B-frames: 2.7% 3.0% 7.3% 12.5% 15.2% 40.1% 6.3% 2.3% 2.1% 1.9% 1.7% 1.4% 1.2% 1.5% 0.8%
x264 [info]: ref P L0: 43.2% 8.0% 18.0% 7.3% 5.7% 4.0% 3.4% 1.8% 1.7% 1.4% 1.3% 1.1% 1.1% 0.9% 1.0% 0.2%
x264 [info]: ref B L0: 65.7% 13.7% 7.1% 3.6% 2.6% 2.0% 1.5% 0.9% 0.7% 0.6% 0.5% 0.5% 0.3% 0.1%
x264 [info]: ref B L1: 90.1% 9.9%

Скриншоты

[Профиль] [ЛС]

Создавать темы 06-Авг-2015 23:19 (спустя 11 месяцев 24 дня)

Топик был перенесен из форума Фильмы до 2014 года в форум Фильмы до 2012 года
sergej644
 
Показать сообщения:    

Текущее время: Сегодня 14:35

Часовой пояс: GMT



Вы не можете начинать темы
Вы не можете отвечать на сообщения
Вы не можете редактировать свои сообщения
Вы не можете удалять свои сообщения
Вы не можете голосовать в опросах
Вы не можете прикреплять файлы к сообщениям
Вы не можете скачивать файлы