Пульс / Pulse / Kairo (2001) BDRip 720p | P2, A

 
Автор Сообщение

BOSS ®

Пол:

Стаж: 4 года

Сообщений: 12092

Откуда: ODESSA



Награды: 22 (Подробнее)

Top Keeper 1 (Количество: 1) Mega Releaser 1 (Количество: 1) Mega Seeder 4 (Количество: 1)
Торрент-статистика

Создавать темы 28-Сен-2018 18:31

[Цитировать]

Информация о фильме
Название: Пульс
Оригинальное название: Kairo / Pulse
Год выхода: 2001
Жанр: ужасы, фантастика, триллер, детектив
Режиссер: Киёси Куросава
В ролях: Харухико Като, Кумико Асо, Коюки, Куруме Арисака, Масатоси Мацуо, Синдзи Такэда, Дзюн Фубуки, Сюн Сугата, Сё Аикава, Кодзи Якусё, Кэндзи Мидзухаси, Такуми Тандзи, Хассей Такано, Ацуси Юки, Гоу Такашима, Каори Итидзё, Тэруо Оно, Кен Фурусава, Акико Китамура и др.
Описание: Однажды в Токио стали пропадать люди. Сначала пропал молодой человек, разработавший уникальную компьютерную программу, с помощью которой общение между людьми облегчалось донельзя. Его верные друзья искали его несколько дней, пока одна из его подруг, придя к нему домой, не обнаружила на стене тень парня, в один миг растаявшая как дым, оставив следы какого-то неизвестного вещества.

Страна: Япония
Продолжительность: 01:58:58
Перевод 1: Профессиональный (двухголосый закадровый) Новый диск
Перевод 2: Авторский (одноголосый закадровый) Владимир Штейн
Субтитры: русские (2), английские
Оригинальная аудиодорожка: японский
Файл
Качество: BDRip 720p
Видео: AVC / 1280x720 / 16:9 / 23.976 fps / 10000 Kbps / High@L4.1
Аудио 1: Rus: AC3 / 48.0 KHz / 2.0 / 256 kbps / Новый диск
Аудио 2: Rus: AC3 / 48.0 KHz / 2.0 / 256 kbps / Владимир Штейн
Аудио 3: Jap: FLAC / 48.0 KHz / 2.0 / 1423 kbps / 24 bit

Скриншоты

MediaInfo

Общее
Уникальный идентификатор : 235652918578201955837783527378032442146 (0xB14919EAAE61D96D863CB7C8413EBB22)
Полное имя : Pulse.2001.BDRip.720p.mkv
Формат : Matroska
Версия формата : Version 4 / Version 2
Размер файла : 9,92 Гбайт
Продолжительность : 1 ч. 58 м.
Режим общего битрейта : Переменный
Общий поток : 11,9 Мбит/сек
Название фильма : Pulse.2001.BDRip.720p-porvaliparus
Дата кодирования : UTC 2017-07-27 08:46:47
Программа кодирования : mkvmerge v13.0.0 ('The Juggler') 64bit
Библиотека кодирования : libebml v1.3.4 + libmatroska v1.4.5
Видео
Идентификатор : 1
Формат : AVC
Формат/Информация : Advanced Video Codec
Профиль формата : High@L4.1
Параметр CABAC формата : Да
Параметр ReFrames формата : 9 кадров
Идентификатор кодека : V_MPEG4/ISO/AVC
Продолжительность : 1 ч. 58 м.
Битрейт : 10000 Кбит/сек
Ширина : 1280 пикселей
Высота : 720 пикселей
Соотношение сторон : 16:9
Режим частоты кадров : Постоянный
Частота кадров : 23,976 (24000/1001) кадра/сек
Цветовое пространство : YUV
Субдискретизация насыщенности : 4:2:0
Битовая глубина : 8 бит
Тип развёртки : Прогрессивная
Бит/(Пиксели*Кадры) : 0.453
Размер потока : 8,31 Гбайт (84%)
Заголовок : Pulse.2001.BDRip.720p
Библиотека кодирования : x264 core 152 r2851 ba24899
Настройки программы : cabac=1 / ref=9 / deblock=1:-3:-3 / analyse=0x3:0x133 / me=umh / subme=11 / psy=1 / psy_rd=1.00:0.10 / mixed_ref=1 / me_range=32 / chroma_me=1 / trellis=2 / 8x8dct=1 / cqm=0 / deadzone=21,11 / fast_pskip=0 / chroma_qp_offset=-3 / threads=12 / lookahead_threads=3 / sliced_threads=0 / nr=0 / decimate=1 / interlaced=0 / bluray_compat=0 / constrained_intra=0 / bframes=10 / b_pyramid=2 / b_adapt=2 / b_bias=0 / direct=3 / weightb=1 / open_gop=0 / weightp=2 / keyint=250 / keyint_min=23 / scenecut=40 / intra_refresh=0 / rc_lookahead=40 / rc=2pass / mbtree=0 / bitrate=10000 / ratetol=1.0 / qcomp=0.60 / qpmin=0 / qpmax=69 / qpstep=4 / cplxblur=20.0 / qblur=0.5 / vbv_maxrate=50000 / vbv_bufsize=62500 / nal_hrd=none / filler=0 / ip_ratio=1.40 / pb_ratio=1.30 / aq=1:0.80
Default : Да
Forced : Нет
Аудио #1
Идентификатор : 2
Формат : AC-3
Формат/Информация : Audio Coding 3
Параметр Endianness формата : Big
Идентификатор кодека : A_AC3
Продолжительность : 1 ч. 58 м.
Вид битрейта : Постоянный
Битрейт : 256 Кбит/сек
Каналы : 2 канала
Расположение каналов : Front: L R
Частота : 48,0 КГц
Частота кадров : 31,250 кадров/сек (1536 spf)
Битовая глубина : 16 бит
Метод сжатия : С потерями
Размер потока : 218 Мбайт (2%)
Заголовок : DVO
Язык : Russian
Default : Да
Forced : Нет
Аудио #2
Идентификатор : 3
Формат : AC-3
Формат/Информация : Audio Coding 3
Параметр Endianness формата : Big
Идентификатор кодека : A_AC3
Продолжительность : 1 ч. 58 м.
Вид битрейта : Постоянный
Битрейт : 256 Кбит/сек
Каналы : 2 канала
Расположение каналов : Front: L R
Частота : 48,0 КГц
Частота кадров : 31,250 кадров/сек (1536 spf)
Битовая глубина : 16 бит
Метод сжатия : С потерями
Размер потока : 218 Мбайт (2%)
Заголовок : AVO [В. Штейн]
Язык : Russian
Default : Нет
Forced : Нет
Аудио #3
Идентификатор : 4
Формат : FLAC
Формат/Информация : Free Lossless Audio Codec
Идентификатор кодека : A_FLAC
Продолжительность : 1 ч. 58 м.
Вид битрейта : Переменный
Битрейт : 1423 Кбит/сек
Каналы : 2 канала
Расположение каналов : Front: L R
Частота : 48,0 КГц
Частота кадров : 11,719 кадров/сек (4096 spf)
Битовая глубина : 24 бит
Размер потока : 1,18 Гбайт (12%)
Библиотека кодирования : libFLAC 1.2.1 (UTC 2007-09-17)
Язык : Japanese
Default : Нет
Forced : Нет
Текст #1
Идентификатор : 5
Формат : UTF-8
Идентификатор кодека : S_TEXT/UTF8
Идентификатор кодека/Информация : UTF-8 Plain Text
Продолжительность : 1 ч. 58 м.
Битрейт : 30 бит/сек
ElementCount : 569
Размер потока : 26,1 Кбайт (0%)
Язык : Russian
Default : Нет
Forced : Нет
Текст #2
Идентификатор : 6
Формат : UTF-8
Идентификатор кодека : S_TEXT/UTF8
Идентификатор кодека/Информация : UTF-8 Plain Text
Продолжительность : 1 ч. 54 м.
Битрейт : 31 бит/сек
ElementCount : 741
Размер потока : 26,5 Кбайт (0%)
Язык : Russian
Default : Нет
Forced : Нет
Текст #3
Идентификатор : 7
Формат : UTF-8
Идентификатор кодека : S_TEXT/UTF8
Идентификатор кодека/Информация : UTF-8 Plain Text
Продолжительность : 1 ч. 58 м.
Битрейт : 19 бит/сек
ElementCount : 789
Размер потока : 17,0 Кбайт (0%)
Язык : English
Default : Нет
Forced : Нет
Меню
00:00:00.000 : en:00:00:00.000
00:08:38.935 : en:00:08:38.935
00:18:16.220 : en:00:18:16.220
00:31:18.835 : en:00:31:18.835
00:39:22.193 : en:00:39:22.193
00:49:28.632 : en:00:49:28.632
00:59:26.313 : en:00:59:26.313
01:12:02.068 : en:01:12:02.068
01:20:56.727 : en:01:20:56.727
01:29:42.377 : en:01:29:42.377
01:39:05.815 : en:01:39:05.815
01:46:36.599 : en:01:46:36.599
[Профиль] [ЛС]
Показать сообщения:    

Текущее время: Сегодня 06:49

Часовой пояс: GMT



Вы не можете начинать темы
Вы не можете отвечать на сообщения
Вы не можете редактировать свои сообщения
Вы не можете удалять свои сообщения
Вы не можете голосовать в опросах
Вы не можете прикреплять файлы к сообщениям
Вы не можете скачивать файлы