Пульс / Pulse / Kairo (Киёси Куросава) [2001 г., ужасы, фантастика, триллер, детектив, BDRip-AV] [DVO, A]

 
Автор Сообщение

Bathory ®

Пол:

Стаж: 1 год 9 месяцев

Сообщений: 320



Награды: 3 (Подробнее)

Друг (Количество: 1) За внесенный вклад в развитие сайта (Количество: 1) Girls (Количество: 1)
Торрент-статистика

Создавать темы 30-Июл-2017 07:59

[Цитировать]

Пульс / Pulse / Kairo- Информация о фильме
Название: Пульс
Оригинальное название: Pulse / Kairo
Год выхода: 2001
Жанр: ужасы, фантастика, триллер, детектив
Режиссер: Киёси Куросава
В ролях: Харухико Като, Кумико Асо, Коюки, Куруме Арисака, Масатоси Мацуо, Синдзи Такэда, Дзюн Фубуки, Сюн Сугата, Сё Аикава, Кодзи Якусё
О фильме:
Однажды в Токио стали пропадать люди. Сначала пропал молодой человек, разработавший уникальную компьютерную программу, с помощью которой общение между людьми облегчалось донельзя. Его верные друзья искали его несколько дней, пока одна из его подруг, придя к нему домой, не обнаружила на стене тень парня, в один миг растаявшая как дым, оставив следы какого-то неизвестного вещества.

Страна: Япония
Студия: Daiei Eiga, Hakuhodo, Imagica
Продолжительность: 01:58:57
Перевод:
1: Профессиональный (двухголосый закадровый) [Новый диск]
2: Авторский (одноголосый закадровый) [Владимир Штейн]
Файл
Кодек: AVC
Качество: BDRip-AVC | Исх. BDRemux 1080p |
Видео: 1024x576, 2234 kbps, 23,976 fps, 0,158 Bits/(Pixel*Frame)
Звук:
1. AC3, 48 kHz, 2 ch, 192 kbps - DVO
2. AC3, 48 kHz, 2 ch, 192 kbps - AVO
Субтитры: русские (2), английские

MI

Общее
Unique ID : 215427004563650556375823030509619908141 (0xA211BB5D44205B099D1489E106300E2D)
Complete name : D:\Kairo.2001.BDRip-AVC.MegaPeer.mkv
Format : Matroska
Format version : Version 4 / Version 2
File size : 2,18 Гбайт
Duration : 1 ч. 58 м.
Overall bit rate : 2620 Кбит/сек
Encoded date : UTC 2017-07-30 07:30:01
Writing application : mkvmerge v14.0.0 ('Flow') 64bit
Writing library : libebml v1.3.4 + libmatroska v1.4.5
Видео
ID : 1
Format : AVC
Format/Info : Advanced Video Codec
Format profile : High@L4.1
Format settings, CABAC : Да
Format settings, ReFrames : 11 кадров
Codec ID : V_MPEG4/ISO/AVC
Duration : 1 ч. 58 м.
Bit rate : 2234 Кбит/сек
Width : 1024 пикселя
Height : 576 пикселей
Display aspect ratio : 16:9
Frame rate mode : Постоянный
Frame rate : 23,976 (24000/1001) кадра/сек
Color space : YUV
Chroma subsampling : 4:2:0
Bit depth : 8 бит
Scan type : Прогрессивная
Bits/(Pixel*Frame) : 0.158
Stream size : 1,86 Гбайт (85%)
Writing library : x264 core 152 r2851 ba24899
Encoding settings : cabac=1 / ref=11 / deblock=1:-2:-2 / analyse=0x3:0x133 / me=umh / subme=11 / psy=1 / psy_rd=1.00:0.04 / mixed_ref=1 / me_range=32 / chroma_me=1 / trellis=2 / 8x8dct=1 / cqm=0 / deadzone=21,11 / fast_pskip=0 / chroma_qp_offset=-3 / threads=12 / lookahead_threads=3 / sliced_threads=0 / nr=0 / decimate=0 / interlaced=0 / bluray_compat=0 / constrained_intra=0 / bframes=16 / b_pyramid=2 / b_adapt=2 / b_bias=0 / direct=3 / weightb=1 / open_gop=0 / weightp=2 / keyint=240 / keyint_min=23 / scenecut=0 / intra_refresh=0 / rc_lookahead=60 / rc=2pass / mbtree=1 / bitrate=2234 / ratetol=1.0 / qcomp=0.60 / qpmin=0 / qpmax=51 / qpstep=4 / cplxblur=15.0 / qblur=0.5 / vbv_maxrate=50000 / vbv_bufsize=62500 / nal_hrd=none / filler=0 / ip_ratio=1.40 / aq=2:0.90
Default : Да
Forced : Нет
Аудио #1
ID : 2
Format : AC-3
Format/Info : Audio Coding 3
Mode extension : CM (complete main)
Format settings, Endianness : Big
Codec ID : A_AC3
Duration : 1 ч. 58 м.
Bit rate mode : Постоянный
Bit rate : 192 Кбит/сек
Channel(s) : 2 канала
Channel positions : Front: L R
Sampling rate : 48,0 КГц
Frame rate : 31,250 кадров/сек (1536 spf)
Compression mode : С потерями
Stream size : 163 Мбайт (7%)
Language : Russian
Default : Да
Forced : Нет
Аудио #2
ID : 3
Format : AC-3
Format/Info : Audio Coding 3
Mode extension : CM (complete main)
Format settings, Endianness : Big
Codec ID : A_AC3
Duration : 1 ч. 58 м.
Bit rate mode : Постоянный
Bit rate : 192 Кбит/сек
Channel(s) : 2 канала
Channel positions : Front: L R
Sampling rate : 48,0 КГц
Frame rate : 31,250 кадров/сек (1536 spf)
Compression mode : С потерями
Stream size : 163 Мбайт (7%)
Language : Russian
Default : Нет
Forced : Нет
Текст #1
ID : 4
Format : UTF-8
Codec ID : S_TEXT/UTF8
Codec ID/Info : UTF-8 Plain Text
Duration : 1 ч. 58 м.
Bit rate : 30 бит/сек
Count of elements : 569
Stream size : 26,1 Кбайт (0%)
Language : Russian
Default : Нет
Forced : Нет
Текст #2
ID : 5
Format : UTF-8
Codec ID : S_TEXT/UTF8
Codec ID/Info : UTF-8 Plain Text
Duration : 1 ч. 54 м.
Bit rate : 31 бит/сек
Count of elements : 741
Stream size : 26,5 Кбайт (0%)
Language : Russian
Default : Нет
Forced : Нет
Текст #3
ID : 6
Format : UTF-8
Codec ID : S_TEXT/UTF8
Codec ID/Info : UTF-8 Plain Text
Duration : 1 ч. 58 м.
Bit rate : 19 бит/сек
Count of elements : 789
Stream size : 17,0 Кбайт (0%)
Language : English
Default : Нет
Forced : Нет
Меню
00:00:00.000 : en:00:00:00.000
00:08:38.935 : en:00:08:38.935
00:18:16.220 : en:00:18:16.220
00:31:18.835 : en:00:31:18.835
00:39:22.193 : en:00:39:22.193
00:49:28.632 : en:00:49:28.632
00:59:26.313 : en:00:59:26.313
01:12:02.068 : en:01:12:02.068
01:20:56.727 : en:01:20:56.727
01:29:42.377 : en:01:29:42.377
01:39:05.815 : en:01:39:05.815
01:46:36.599 : en:01:46:36.599

Скриншоты

Релиз:
[Профиль] [ЛС]
Показать сообщения:    

Текущее время: Сегодня 09:33

Часовой пояс: GMT



Вы не можете начинать темы
Вы не можете отвечать на сообщения
Вы не можете редактировать свои сообщения
Вы не можете удалять свои сообщения
Вы не можете голосовать в опросах
Вы не можете прикреплять файлы к сообщениям
Вы не можете скачивать файлы