Пули над Бродвеем / Bullets Over Broadway (1994) BDRip 1080p от NNNB | P, A

 
Автор Сообщение

sergej644 ®

Пол:

Стаж: 4 года 11 месяцев

Сообщений: 6046

Откуда: Soviet Union



Награды: Нет

Торрент-статистика

Создавать темы 05-Дек-2014 09:59

[Цитировать]

Пули над Бродвеем / Bullets Over Broadway
«Деньги решают всё...»
Год выпуска: 1994
Жанр: драма, комедия, криминал
Выпущено: США
Режиссер: Вуди Аллен / Woody Allen
В ролях: Джон Кьюсак , Дайэнн Уист , Дженнифер Тилли , Чазз Пальминтери , Мэри-Луиз Паркер , Джек Уорден , Джо Витерелли , Роб Райнер , Трейси Ульман , Джим Бродбент , Харви Фирштейн , Стейси Нелкин
Перевод: Профессиональный многоголосый, Авторский (одноголосый, Петр Карцев)

Сюжет фильма:
Молодой и талантливый драматург написал пьесу, но денег на постановку, как всегда, не хватает. На помощь приходит известный гангстер из Нью-Йорка, предлагая деньги, но требуя поставить на главную роль свою бездарную подружку. Автор пьесы поставлен перед дилеммой: есть деньги и есть плохая актриса, нет актрисы - нет пьесы...

Качество: BDRip 1080p (исходник Blu-ray)
Формат: AVC (библиотека кодирования x.264)
Контейнер (Расширение): MKV
Видео: 1916x1020, 10954 Кбит/сек, 24 кадр/сек, 0,234 Бит/[Пиксели*Кадры]
Аудио №1: русский / AC3 / 2.0 / 48 kHz / 192 kbps / 16 bit |Многоголосый закадровый|
Аудио №2: русский / AC3 / 2.0 / 48 kHz / 192 kbps / 16 bit |Авторский одноголосый, Петр Карцев|
Аудио №3: английский / AC3 / 2.0 / 48 kHz / 192 kbps / 16 bit
Субтитры: русские (Russian)
Продолжительность: 01:38:44Автор рипа:

MediaInfo

Format : Matroska
Format version : Version 2
File size : 7.95 GiB
Duration : 1h 38mn
Overall bit rate : 11.5 Mbps
Movie name : Puli nad Brodveem.(1994).BDRip.1080p.[denis100]
Encoded date : UTC 2014-12-05 05:24:12
Writing application : mkvmerge v5.8.0 ('No Sleep / Pillow') built on Sep 2 2012 15:37:04
Writing library : libebml v1.2.3 + libmatroska v1.3.0
Video
ID : 1
Format : AVC
Format/Info : Advanced Video Codec
Format profile : High@L4.1
Format settings, CABAC : Yes
Format settings, ReFrames : 4 frames
Codec ID : V_MPEG4/ISO/AVC
Duration : 1h 38mn
Bit rate : 11.0 Mbps
Width : 1 916 pixels
Height : 1 020 pixels
Display aspect ratio : 1.878
Frame rate : 24.000 fps
Color space : YUV
Chroma subsampling : 4:2:0
Bit depth : 8 bits
Scan type : Progressive
Bits/(Pixel*Frame) : 0.234
Stream size : 7.39 GiB (93%)
Title : Puli nad Brodveem.(1994).BDRip.1080p.[denis100]
Writing library : x264 core 142 r2491 24e4fed
Encoding settings : cabac=1 / ref=4 / deblock=1:-3:-3 / analyse=0x3:0x133 / me=umh / subme=11 / psy=1 / psy_rd=1.00:0.10 / mixed_ref=1 / me_range=48 / chroma_me=1 / trellis=2 / 8x8dct=1 / cqm=0 / deadzone=21,11 / fast_pskip=0 / chroma_qp_offset=-3 / threads=6 / lookahead_threads=1 / sliced_threads=0 / nr=0 / decimate=1 / interlaced=0 / bluray_compat=0 / constrained_intra=0 / bframes=9 / b_pyramid=2 / b_adapt=2 / b_bias=0 / direct=3 / weightb=1 / open_gop=0 / weightp=2 / keyint=240 / keyint_min=24 / scenecut=40 / intra_refresh=0 / rc=2pass / mbtree=0 / bitrate=10954 / ratetol=1.0 / qcomp=0.60 / qpmin=0 / qpmax=69 / qpstep=4 / cplxblur=20.0 / qblur=0.5 / ip_ratio=1.40 / pb_ratio=1.30 / aq=1:1.00
Language : English
Default : Yes
Forced : No
Audio #1
ID : 2
Format : AC-3
Format/Info : Audio Coding 3
Mode extension : CM (complete main)
Codec ID : A_AC3
Duration : 1h 38mn
Bit rate mode : Constant
Bit rate : 192 Kbps
Channel(s) : 2 channels
Channel positions : Front: L R
Sampling rate : 48.0 KHz
Bit depth : 16 bits
Compression mode : Lossy
Stream size : 136 MiB (2%)
Title : Многолосый закадровый
Language : Russian
Default : Yes
Forced : No
Audio #2
ID : 3
Format : AC-3
Format/Info : Audio Coding 3
Mode extension : CM (complete main)
Codec ID : A_AC3
Duration : 1h 38mn
Bit rate mode : Constant
Bit rate : 192 Kbps
Channel(s) : 2 channels
Channel positions : Front: L R
Sampling rate : 48.0 KHz
Bit depth : 16 bits
Compression mode : Lossy
Stream size : 136 MiB (2%)
Title : Одноголосый закадровый, П.Карцев
Language : Russian
Default : No
Forced : No
Audio #3
ID : 4
Format : AC-3
Format/Info : Audio Coding 3
Mode extension : CM (complete main)
Codec ID : A_AC3
Duration : 1h 38mn
Bit rate mode : Constant
Bit rate : 192 Kbps
Channel(s) : 2 channels
Channel positions : Front: L R
Sampling rate : 48.0 KHz
Bit depth : 16 bits
Compression mode : Lossy
Stream size : 136 MiB (2%)
Title : English
Language : English
Default : No
Forced : No
Text
ID : 5
Format : UTF-8
Codec ID : S_TEXT/UTF8
Codec ID/Info : UTF-8 Plain Text
Title : Russian
Language : Russian
Default : No
Forced : No

x264

x264 [info]: frame I:646 Avg QP:17.52 size:165042
x264 [info]: frame P:24854 Avg QP:20.16 size: 85969
x264 [info]: frame B:116656 Avg QP:22.60 size: 50244

Скриншоты:

[Профиль] [ЛС]
Кто просматривает тему:

Показать сообщения:    

Текущее время: Сегодня 02:23

Часовой пояс: GMT



Вы не можете начинать темы
Вы не можете отвечать на сообщения
Вы не можете редактировать свои сообщения
Вы не можете удалять свои сообщения
Вы не можете голосовать в опросах
Вы не можете прикреплять файлы к сообщениям
Вы не можете скачивать файлы