Пряности и страсти / The Hundred-Foot Journey (Лассе Халльстрём / Lasse Hallström) [2014 г., Индия, ОАЭ, США, драма, комедия, BDRip-AVC] Dub + Original Eng + Sub (Rus, Eng)

 
Автор Сообщение

TorrentFilm ®

Пол:

Стаж: 2 года

Сообщений: 7741



Награды: Нет

Торрент-статистика

Создавать темы 28-Дек-2014 00:31

[Цитировать]

-Пряности и страсти / The Hundred-Foot Journey Страна: Индия, ОАЭ, США
Студия: Amblin Entertainment, DreamWorks Studios, Harpo Films, Imagenation Abu Dhabi FZ, Participant Media Reliance, Entertainment Touchstone Pictures
Жанр: Драма, комедия
Год выпуска: 2014
Продолжительность: 02:02:38-Перевод: Профессиональный (полное дублирование)
Оригинальная аудиодорожка: английский
Cубтитры: русские, английские
Режиссер: Лассе Халльстрём / Lasse Hallström
В ролях: Хелен Миррен, Ом Пури, Маниш Дайал, Шарлотта Ле Бон, Амит Шах, Фарзана Дуа Элахе, Диллон Митра, Ариа Пандья, Мишель Блан, Клеман Сибони
Описание: Семья индийских эмигрантов, которых судьба забросила в маленький городок в Провансе, решает открыть кафе с восточной кухней… прямо напротив знаменитого на всю округу ресторана «Плакучая ива», бастиона французских кулинарных традиций, хозяйка которого, Мадам Малори, больше всего на свете гордится тем, что её заведение удостоено звезды в каталоге «Мишлен».
Поначалу Мадам Малори не скрывает своей брезгливости шумными соседями и их экзотическими привычками, но постепенно война за клиентов между двумя ресторанами сменяется шатким перемирием, особенно, когда выясняется, что юный повар-эмигрант Хассан является обладателем совершенного вкуса, и рецепты французской кухни покоряются ему так же легко, как секреты индийских пряностей.-
Сэмпл: скачать-Релиз от -
Автор рипа: Elheym
Качество: BDRip-AVC (источник: / Blu-ray Disc [The.Hundred.Foot.Journey.2014.1080p.Blu-ray.AVC.DTS.HD.MA.5.1-NiP] / 1080p)
Контейнер: MKV
Видео: 1132x474 (2.40:1), 23.976 fps, MPEG-4 AVC, ~3473 kbps avg, 0.270 bit/pixel
Аудио #1: Русский: AC3, 5.1, 48 kHz, ~448 Кбит/с | Профессиональный (полное дублирование) |
Аудио #2: Английский: AC3, 5.1, 48 kHz, ~448 Кбит/с | Оригинал |
Субтитры: русские (полные), английские (полные, полные SDH, полные SDH цветные)
Главы: Присутствуют, сохранены оригинальные

MediaInfo

Уникальный идентификатор : 245130117626012913426949753187686832313 (0xB86A57E7CC59167CAFEE5AA7A16658B9)
Полное имя : The.Hundred-Foot.Journey.2014.DUAL.BDRip-AVC.x264.AC3.-HQCLUB.mkv
Формат : Matroska
Версия формата : Version 2
Размер файла : 3,82 Гбайт
Продолжительность : 2 ч. 2 м.
Общий поток : 4457 Кбит/сек
Дата кодирования : UTC 2014-12-19 02:53:25
Программа кодирования : mkvmerge v5.2.0 ('I can't explain') built on Dec 18 2011 18:12:03
Библиотека кодирования : libebml v1.2.3 + libmatroska v1.3.0
Attachements : 2.jpg
Видео
Идентификатор : 1
Формат : AVC
Формат/Информация : Advanced Video Codec
Профиль формата : High@L4.1
Параметр CABAC формата : Да
Параметр ReFrames формата : 12 кадров
Идентификатор кодека : V_MPEG4/ISO/AVC
Продолжительность : 2 ч. 2 м.
Битрейт : 3473 Кбит/сек
Ширина : 1132 пикселя
Высота : 474 пикселя
Соотношение сторон : 2,40:1
Режим частоты кадров : Постоянный
Частота кадров : 23,976 кадра/сек
Цветовое пространство : YUV
Субдискретизация насыщенности : 4:2:0
Битовая глубина : 8 бит
Тип развёртки : Прогрессивная
Бит/(Пиксели*Кадры) : 0.270
Размер потока : 2,98 Гбайт (78%)
Заголовок : Пряности и страсти / The Hundred-Foot Journey (2014) BDRip-AVC by HQCLUB [Elheym]
Библиотека кодирования : x264 core 142 r2479kMod dd79a61
Настройки программы : cabac=1 / ref=12 / deblock=1:-3:-2 / analyse=0x3:0x133 / me=umh / subme=11 / psy=1 / fade_compensate=0.00 / psy_rd=1.00:0.00 / mixed_ref=1 / me_range=32 / chroma_me=1 / trellis=2 / 8x8dct=1 / cqm=0 / deadzone=21,11 / fast_pskip=0 / chroma_qp_offset=-4 / threads=5 / lookahead_threads=1 / sliced_threads=0 / nr=0 / decimate=0 / interlaced=0 / bluray_compat=0 / constrained_intra=0 / fgo=0 / bframes=16 / b_pyramid=2 / b_adapt=2 / b_bias=0 / direct=1 / weightb=1 / open_gop=0 / weightp=2 / keyint=230 / keyint_min=23 / scenecut=40 / intra_refresh=0 / rc_lookahead=40 / rc=crf / mbtree=1 / crf=17.6000 / qcomp=0.70 / qpmin=0 / qpmax=69 / qpstep=4 / vbv_maxrate=50000 / vbv_bufsize=62500 / crf_max=0.0 / nal_hrd=none / filler=0 / ip_ratio=1.40 / aq=2:0.90
Язык : English
Default : Да
Forced : Нет
Аудио #1
Идентификатор : 2
Формат : AC-3
Формат/Информация : Audio Coding 3
Расширение режима : CM (complete main)
Параметр Endianness формата : Big
Идентификатор кодека : A_AC3
Продолжительность : 2 ч. 2 м.
Вид битрейта : Постоянный
Битрейт : 448 Кбит/сек
Каналы : 6 каналов
Расположение каналов : Front: L C R, Side: L R, LFE
Частота : 48,0 КГц
Битовая глубина : 16 бит
Метод сжатия : С потерями
Размер потока : 393 Мбайт (10%)
Заголовок : АС3 5.1 @ 448 kbps - Dub
Язык : Russian
Default : Нет
Forced : Нет
Аудио #2
Идентификатор : 3
Формат : AC-3
Формат/Информация : Audio Coding 3
Расширение режима : CM (complete main)
Параметр Endianness формата : Big
Идентификатор кодека : A_AC3
Продолжительность : 2 ч. 2 м.
Вид битрейта : Постоянный
Битрейт : 448 Кбит/сек
Каналы : 6 каналов
Расположение каналов : Front: L C R, Side: L R, LFE
Частота : 48,0 КГц
Битовая глубина : 16 бит
Метод сжатия : С потерями
Размер потока : 393 Мбайт (10%)
Заголовок : АС3 5.1 @ 448 kbps - Original
Язык : English
Default : Нет
Forced : Нет
Текст #1
Идентификатор : 4
Формат : UTF-8
Идентификатор кодека : S_TEXT/UTF8
Идентификатор кодека/Информация : UTF-8 Plain Text
Заголовок : Full
Язык : Russian
Default : Нет
Forced : Нет
Текст #2
Идентификатор : 5
Формат : UTF-8
Идентификатор кодека : S_TEXT/UTF8
Идентификатор кодека/Информация : UTF-8 Plain Text
Заголовок : Forced
Язык : Russian
Default : Нет
Forced : Нет
Текст #3
Идентификатор : 6
Формат : UTF-8
Идентификатор кодека : S_TEXT/UTF8
Идентификатор кодека/Информация : UTF-8 Plain Text
Заголовок : Full
Язык : English
Default : Нет
Forced : Нет
Текст #4
Идентификатор : 7
Формат : UTF-8
Идентификатор кодека : S_TEXT/UTF8
Идентификатор кодека/Информация : UTF-8 Plain Text
Заголовок : Full SDH
Язык : English
Default : Нет
Forced : Нет
Текст #5
Идентификатор : 8
Формат : UTF-8
Идентификатор кодека : S_TEXT/UTF8
Идентификатор кодека/Информация : UTF-8 Plain Text
Заголовок : Full SDH Colored
Язык : English
Default : Нет
Forced : Нет
Меню
00:00:00.000 : :Chapter 01
00:07:36.787 : :Chapter 02
00:15:05.153 : :Chapter 03
00:20:56.462 : :Chapter 04
00:27:01.911 : :Chapter 05
00:33:27.462 : :Chapter 06
00:41:12.010 : :Chapter 07
00:48:12.264 : :Chapter 08
00:55:11.931 : :Chapter 09
01:02:18.525 : :Chapter 10
01:08:58.675 : :Chapter 11
01:19:08.951 : :Chapter 12
01:28:00.733 : :Chapter 13
01:35:53.162 : :Chapter 14
01:41:47.391 : :Chapter 15
01:47:40.162 : :Chapter 16
01:51:18.003 : :Chapter 17
01:54:39.247 : :Chapter 18
02:02:29.382 : :Chapter 19

x264 log

x264 [info]: frame I:1182 Avg QP:14.13 size:105960
x264 [info]: frame P:32010 Avg QP:18.28 size: 39570
x264 [info]: frame B:143029 Avg QP:20.37 size: 13157
x264 [info]: consecutive B-frames: 1.2% 1.2% 4.1% 13.0% 14.5% 41.8% 6.3% 1.7% 2.6% 3.5% 3.0% 1.1% 2.0% 1.6% 1.0% 0.7% 0.7%
x264 [info]: ref P L0: 44.8% 9.4% 18.8% 6.6% 5.7% 3.7% 3.5% 1.7% 1.8% 1.3% 1.4% 1.2% 0.1% 0.0%
x264 [info]: ref B L0: 72.3% 12.4% 5.6% 2.9% 2.0% 1.6% 1.2% 0.8% 0.6% 0.4% 0.1%
x264 [info]: ref B L1: 92.5% 7.5%

Скриншоты

[Профиль] [ЛС]
Показать сообщения:    

Текущее время: Сегодня 12:29

Часовой пояс: GMT



Вы не можете начинать темы
Вы не можете отвечать на сообщения
Вы не можете редактировать свои сообщения
Вы не можете удалять свои сообщения
Вы не можете голосовать в опросах
Вы не можете прикреплять файлы к сообщениям
Вы не можете скачивать файлы