Про любовь и муху (Андрей Ушаков) [1995, Рисованный мультфильм, WEBRip]

 
Автор Сообщение

TorrentFilm ®

Пол:

Стаж: 2 года

Сообщений: 7741



Награды: Нет

Торрент-статистика

Создавать темы 20-Окт-2015 00:07

[Цитировать]

Про любовь и муху
Страна: Россия
Жанр: Рисованный мультфильм
Продолжительность: 00:08:33
Год выпуска: 1995
Русские субтитры: нет
Режиссёр: Андрей Ушаков
Роли озвучивали: А.Птицин
Описание: Любовные переживания, поиски смысла жизни, борьба с самим собой - все это испытывают на себе три персонажа - человек, собака и муха в этой трогательной и, одновременно, веселой истории, адресованной и взрослым и детям.
Доп. информация: «Союзмультфильм»
сценарист А.Ушаков
художник-постановщик Б.Садовников,И.Синкевич,Д.Кольцов
оператор Сергей Хлебников, Д.Жуков
звукорежиссер В.Орел
Раздача группы:
РИП by Itartass
Качество: WEBRip
Формат: AVI
Видео: 640x480 (1.33:1), 25 fps, XviD build 50 ~999 kbps avg, 0.13 bit/pixel
Аудио: 32 kHz, MPEG Layer 3, 2 ch, ~96.00 kbps avg
Субтитры: нет

Подробные технические данные

Format : AVIFormat/Info : Audio Video InterleaveFile size : 67.6 MiBDuration : 8mn 33sOverall bit rate : 1 106 KbpsMovie name : Про любовь и мухуWriting application : VirtualDubMod 1.5.10.2 (build 2540/release) VirtualDubMod build 2540/releaseOriginal source form/Name : мультфильмCopyright : Itar-Tass collection
VideoID : 0Format : MPEG-4 VisualFormat profile : Advanced Simple@L5Format settings, BVOP : 1Format settings, QPel : NoFormat settings, GMC : No warppointsFormat settings, Matrix : Default (H.263)Codec ID : XVIDCodec ID/Hint : XviDDuration : 8mn 33sBit rate : 1 000 KbpsWidth : 640 pixelsHeight : 480 pixelsDisplay aspect ratio : 4:3Frame rate : 25.000 fpsColor space : YUVChroma subsampling : 4:2:0Bit depth : 8 bitsScan type : ProgressiveCompression mode : LossyBits/(Pixel*Frame) : 0.130Stream size : 61.2 MiB (90%)Writing library : XviD 1.2.1 (UTC 2008-12-04)
AudioID : 1Format : MPEG AudioFormat version : Version 1Format profile : Layer 3Codec ID : 55Codec ID/Hint : MP3Duration : 8mn 33sBit rate mode : ConstantBit rate : 96.0 KbpsChannel(s) : 2 channelsSampling rate : 32.0 KHzCompression mode : LossyStream size : 5.87 MiB (9%)Alignment : Aligned on interleavesInterleave, duration : 40 ms (1.00 video frame)Interleave, preload duration : 504 msWriting library : LAME3.98rEncoding settings : -m s -V 4 -q 0 -lowpass 15.1 -b 96Language : Не определен

Скриншоты

[Профиль] [ЛС]
Кто просматривает тему:

Показать сообщения:    

Текущее время: Сегодня 20:33

Часовой пояс: GMT



Вы не можете начинать темы
Вы не можете отвечать на сообщения
Вы не можете редактировать свои сообщения
Вы не можете удалять свои сообщения
Вы не можете голосовать в опросах
Вы не можете прикреплять файлы к сообщениям
Вы не можете скачивать файлы