Прощание (Дмитрий Константинов) [2013, Россия, мелодрама, HDTV 1080i] + Original Rus

 
Автор Сообщение

TorrentFilm ®

Пол:

Стаж: 2 года

Сообщений: 7741



Награды: Нет

Торрент-статистика

Создавать темы 18-Фев-2016 00:09

[Цитировать]

Прощание
Страна: Россия
Студия: Марс Медиа Энтертейнмент
Жанр: мелодрама
Год выпуска: 2013
Продолжительность: 01:32:33
Перевод: Не требуется
Cубтитры: нет
Оригинальная аудиодорожка: русский
Режиссер: Дмитрий Константинов
В ролях: Алёна Бабенко, Сергей Юшкевич, Владимир Виноградов, Олег Мазуров, Николай Губенков, Арсений Лейн, Вячеслав Чепурченко, Евгений Антропов, Анна Башенкова, Ольга Сухарева
Описание: Популярная российская актриса Анна Рябинина более десяти лет строит карьеру и живет в Америке. Внезапно она принимает решение вернуться. О причинах и последствиях этого решения Анна задумается уже в Москве. Дома она проведет всего несколько дней, которые станут самыми безумными и важными в ее жизни.

Sample
Тип релиза: HDTV 1080i
Контейнер: TS
Видео: MPEG4 AVC Video, H264, 16:9, 1920x1080, 25 fps, 7864 kbps
Аудио: Russian (MP2, 2 ch, 192 kbps, 16 bits, 48.0 KHz) - оригинал

MediaInfo

General
ID : 1 (0x1)
Complete name : E:\Прощание 2013 HDTV 1080i.ts
Format : MPEG-TS
File size : 5.48 GiB
Duration : 1h 32mn
Overall bit rate mode : Variable
Overall bit rate : 8 477 Kbps
Video
ID : 2931 (0xB73)
Menu ID : 1115 (0x45B)
Format : AVC
Format/Info : Advanced Video Codec
Format profile : High@L4.0
Format settings, CABAC : Yes
Format settings, ReFrames : 4 frames
Codec ID : 27
Duration : 1h 32mn
Bit rate : 7 864 Kbps
Width : 1 920 pixels
Height : 1 080 pixels
Display aspect ratio : 16:9
Frame rate : 25.000 fps
Color space : YUV
Chroma subsampling : 4:2:0
Bit depth : 8 bits
Scan type : MBAFF
Bits/(Pixel*Frame) : 0.152
Stream size : 5.08 GiB (93%)
Audio
ID : 2932 (0xB74)
Menu ID : 1115 (0x45B)
Format : MPEG Audio
Format version : Version 1
Format profile : Layer 2
Codec ID : 3
Duration : 1h 32mn
Bit rate mode : Constant
Bit rate : 192 Kbps
Channel count : 2 channels
Sampling rate : 48.0 KHz
Compression mode : Lossy
Stream size : 127 MiB (2%)
Language : Russian

Скриншоты

[Профиль] [ЛС]
Кто просматривает тему:

Форум Тема Автор Размер
Фильмы (DVD 5/9) Долгое прощание (Сергей Урсуляк) [2004, Россия, драма, мелодрама, экранизация, DVD9] TorrentFilm 5.53 GB
Документальные HD Елена Образцова. Прощай, королева! [2015, Документальный, HDTV 1080i] TorrentFilm 3.88 GB
Документальные HD Настоящая Кровь. Прощальное Шоу / True Blood. A Farewell To Bon Temps (Крис Деннистон / Chris Denniston) [2015, Документальный, HDTV 720p] DVO (NOVAMEDiA) TorrentFilm 865 MB
Фильмы (HD Rips | 720p, 1080p) Прощай, Бафана / Goodbye Bafana (2007) BDRip 1080p | P Russian Mafia 9.85 GB
Фильмы 2011 года Прощай, Бафана / Goodbye Bafana (Билле Аугуст / Bille August) [2007, Германия, Франция, Великобритания, Италия, ЮАР, Бельгия, Люксембург, драма, биография, исторический, DVDRip] MVO + Sub Rus +... TorrentFilm 2.18 GB
Фильмы (HD DVD, Blu-ray и BDRemux) Прощай, речь / Adieu au langage (2014) DVD5 от New-Team | P | Лицензия sergej644 3.93 GB
Зарубежные Прощай, речь 3D / Adieu au langage / Goodbye to Language (Жан-Люк Годар / Jean-Luc Godard) [2014 г., Франция, драма, BDRip-AVC] Half SideBySide / Горизонтальная анаморфная стереопара TorrentFilm 9.73 GB
Классика зарубежного кино Прощай, Сабата / Indio Black, sai che ti dico: Sei un gran figlio di... (1970) HDTVRip от Leon-masl | P, A Russian Mafia 1.45 GB
Показать сообщения:    

Текущее время: Сегодня 06:25

Часовой пояс: GMT



Вы не можете начинать темы
Вы не можете отвечать на сообщения
Вы не можете редактировать свои сообщения
Вы не можете удалять свои сообщения
Вы не можете голосовать в опросах
Вы не можете прикреплять файлы к сообщениям
Вы не можете скачивать файлы