Прощальная вечеринка / House Party: Tonight’s the Night (2013) HDTVRip 720p | P

 
Автор Сообщение

sergej644 ®

Пол:

Стаж: 4 года 11 месяцев

Сообщений: 6046

Откуда: Soviet Union



Награды: Нет

Торрент-статистика

Создавать темы 01-Фев-2015 03:31

[Цитировать]

Информация о фильме
Название: Прощальная вечеринка
Оригинальное название: House Party: Tonight’s the Night
Год выхода: 2013
Жанр: Комедия
Режиссер: Дэрин Скотт
В ролях: Текуан Ричмонд, Джереми Боадо, Аланка Крафферт, Зак Гудспид, Тристан Мэйс, Алекс МакГрегор, Stephen Newton
О фильме:
У Криса уже все запланировано: он готов покинуть школу и отправится в колледж на своей новой тачке. Единственная проблема – ему также придется расстаться со своим лучшим другом Диланом, а также с девушкой Отом, в которую он влюблен со второго класса. Решением становится прощальная вечеринка, которая превращается в настоящую катастрофу.

Страна: США
Студия: Film Afrika Worldwide, Warner Premiere
Продолжительность: 01:30:35
Перевод: Профессиональный многоголосый (SDI Media)
Файл
Кодек: MPEG-4 AVC
Качество: HDTVRip 720p
Видео: 3300 Кбит/с, 1280x720, 25.000 кадр/с
Звук: Русский (АС3, 2 ch, 192 Кбит/с)
Семпл

Скриншоты

MI

Общее
Полное имя : Prowalnaja.vecherinka.2013.x264.HDTVRip(720p).MediaClub.mkv
Формат : Matroska
Версия формата : Version 2
Размер файла : 2,21 Гбайт
Продолжительность : 1 ч. 30 м.
Общий поток : 3492 Кбит/сек
Название фильма : MediaClub
Дата кодирования : UTC 2014-08-17 08:10:41
Программа кодирования : mkvmerge v5.4.0 ('Piper') built on Mar 10 2012 13:34:39
Библиотека кодирования : libebml v1.2.3 + libmatroska v1.3.0
Видео
Идентификатор : 1
Формат : AVC
Формат/Информация : Advanced Video Codec
Профиль формата : High@L4.1
Параметр CABAC формата : Да
Параметр ReFrames формата : 9 кадров
Идентификатор кодека : V_MPEG4/ISO/AVC
Продолжительность : 1 ч. 30 м.
Битрейт : 3300 Кбит/сек
Ширина : 1280 пикселей
Высота : 720 пикселей
Соотношение сторон : 16:9
Режим частоты кадров : Постоянный
Частота кадров : 25,000 кадров/сек
Цветовое пространство : YUV
Субдискретизация насыщенности : 4:2:0
Битовая глубина : 8 бит
Тип развёртки : Прогрессивная
Бит/(Пиксели*Кадры) : 0.143
Размер потока : 2,04 Гбайт (93%)
Библиотека кодирования : x264 core 125 r2208 d9d2288
Настройки программы : cabac=1 / ref=9 / deblock=1:-3:-2 / analyse=0x3:0x133 / me=umh / subme=10 / psy=1 / psy_rd=1.00:0.20 / mixed_ref=1 / me_range=48 / chroma_me=1 / trellis=2 / 8x8dct=1 / cqm=0 / deadzone=21,11 / fast_pskip=0 / chroma_qp_offset=-3 / threads=6 / lookahead_threads=1 / sliced_threads=0 / nr=0 / decimate=0 / interlaced=0 / bluray_compat=0 / constrained_intra=0 / bframes=8 / b_pyramid=2 / b_adapt=2 / b_bias=0 / direct=3 / weightb=1 / open_gop=0 / weightp=2 / keyint=250 / keyint_min=25 / scenecut=40 / intra_refresh=0 / rc=2pass / mbtree=0 / bitrate=3300 / ratetol=1.0 / qcomp=0.60 / qpmin=0 / qpmax=69 / qpstep=4 / cplxblur=20.0 / qblur=0.5 / ip_ratio=1.40 / pb_ratio=1.30 / aq=1:1.00
Default : Да
Forced : Нет
Аудио
Идентификатор : 2
Формат : AC-3
Формат/Информация : Audio Coding 3
Расширение режима : CM (complete main)
Параметр Endianness формата : Big
Идентификатор кодека : A_AC3
Продолжительность : 1 ч. 30 м.
Вид битрейта : Постоянный
Битрейт : 192 Кбит/сек
Каналы : 2 канала
Расположение каналов : Front: L R
Частота : 48,0 КГц
Битовая глубина : 16 бит
Метод сжатия : С потерями
Размер потока : 124 Мбайт (5%)
Язык : Russian
Default : Да
Forced : Нет
--
[Профиль] [ЛС]
Кто просматривает тему:

Форум Тема Автор Размер
Фильмы (DVD 5/9) Долгое прощание (Сергей Урсуляк) [2004, Россия, драма, мелодрама, экранизация, DVD9] TorrentFilm 5.53 GB
Документальные HD Елена Образцова. Прощай, королева! [2015, Документальный, HDTV 1080i] TorrentFilm 3.88 GB
Документальные HD Настоящая Кровь. Прощальное Шоу / True Blood. A Farewell To Bon Temps (Крис Деннистон / Chris Denniston) [2015, Документальный, HDTV 720p] DVO (NOVAMEDiA) TorrentFilm 865 MB
Фильмы (HD Rips | 720p, 1080p) Прощай, Бафана / Goodbye Bafana (2007) BDRip 1080p | P Russian Mafia 9.85 GB
Фильмы 2011 года Прощай, Бафана / Goodbye Bafana (Билле Аугуст / Bille August) [2007, Германия, Франция, Великобритания, Италия, ЮАР, Бельгия, Люксембург, драма, биография, исторический, DVDRip] MVO + Sub Rus +... TorrentFilm 2.18 GB
Фильмы (HD DVD, Blu-ray и BDRemux) Прощай, речь / Adieu au langage (2014) DVD5 от New-Team | P | Лицензия sergej644 3.93 GB
Зарубежные Прощай, речь 3D / Adieu au langage / Goodbye to Language (Жан-Люк Годар / Jean-Luc Godard) [2014 г., Франция, драма, BDRip-AVC] Half SideBySide / Горизонтальная анаморфная стереопара TorrentFilm 9.73 GB
Классика зарубежного кино Прощай, Сабата / Indio Black, sai che ti dico: Sei un gran figlio di... (1970) HDTVRip от Leon-masl | P, A Russian Mafia 1.45 GB
Показать сообщения:    

Текущее время: Сегодня 08:19

Часовой пояс: GMT



Вы не можете начинать темы
Вы не можете отвечать на сообщения
Вы не можете редактировать свои сообщения
Вы не можете удалять свои сообщения
Вы не можете голосовать в опросах
Вы не можете прикреплять файлы к сообщениям
Вы не можете скачивать файлы