Прощай, Сабата / Indio Black, sai che ti dico: Sei un gran figlio di... (1970) HDTVRip от Leon-masl | P, A

 
Автор Сообщение

Russian Mafia ®

Пол:

Стаж: 2 года 3 месяца

Сообщений: 4249



Награды: 10 (Подробнее)

Mega Seeder 5 (Количество: 1) Mega Seeder 3 (Количество: 1) Top Releaser 2 (Количество: 1)
Торрент-статистика

Создавать темы 11-Сен-2015 07:59

[Цитировать]

Информация о фильме
Название: Прощай, Сабата
Оригинальное название: Adios Sabata / Indio Black, sai che ti dico: Sei un gran figlio di...
Год выхода: 1970
Жанр: Боевик, вестерн, военный
Режиссер: Джанфранко Паролини
В ролях: Юл Бриннер, Дин Рид, Игнацио Спалла, Жерар Хертер, Сальваторе Боргезе, Франко Фантазия, Джозеф П. Персауд, Андреа Скотти, Нивз Наварро, Лучано Касамоника, Сальваторе Билла, Витторио Фанфони, Массимо Кароччи
О фильме:
Сабата, лучший стрелок дикого запада, помогает мексиканским повстанцам украсть повозку с золотом, на которое революционеры планируют купить оружие. Однако на это золото уже успела позариться и местная бандитская шайка.

Страна: Италия, Испания
Студия: Produzioni Europee Associati (PEA)
Продолжительность: 01:40:54
Перевод: Профессиональный многоголосый НТВ+, авторский одноголосый Кузнецов
Файл
Кодек: XviD
Качество: HDTVRip
Видео: 720x400, 25,000 fps, 1659 kbps
Аудио 1: АС3, 2 ch, 192 kbps.....Профессиональный многоголосый |НТВ+|
Аудио 2: АС3, 2 ch, 192 kbps.....Авторский одноголосый |Кузнецов|

MI

Общее
Полное имя : Proshiay.Sabata.1970.HDTVRip.avi
Формат : AVI
Формат/Информация : Audio Video Interleave
Размер файла : 1,45 Гбайт
Продолжительность : 1 ч. 40 м.
Общий поток : 2057 Кбит/сек
Программа кодирования : VirtualDubMod 1.5.10.2 (build 2542/release)
Библиотека кодирования : VirtualDubMod build 2542/release
Видео
Идентификатор : 0
Формат : MPEG-4 Visual
Профиль формата : Advanced Simple@L5
Параметр BVOP формата : 1
Параметр QPel формата : Нет
Параметр GMC формата : Без точки перехода
Параметр матрицы формата : Выборочная
Идентификатор кодека : XVID
Идентификатор кодека/Подсказка : XviD
Продолжительность : 1 ч. 40 м.
Битрейт : 1659 Кбит/сек
Ширина : 720 пикс.
Высота : 400 пикс.
Соотношение сторон : 16:9
Частота кадров : 25,000 кадр/сек
Цветовое пространство : YUV
Подвыборка цветности : 4:2:0
Битовая глубина : 8 бит
Тип развёртки : Прогрессивная
Метод сжатия : С потерями
Бит/(Пиксели*Кадры) : 0.230
Размер потока : 1,17 Гбайт (81%)
Библиотека кодирования : XviD 73
Аудио #1
Идентификатор : 1
Формат : AC-3
Формат/Информация : Audio Coding 3
Расширение режима : CM (complete main)
Идентификатор кодека : 2000
Продолжительность : 1 ч. 40 м.
Вид битрейта : Постоянный
Битрейт : 192 Кбит/сек
Канал(ы) : 2 канала(ов)
Расположение каналов : Front: L R
Частота : 48,0 КГц
Битовая глубина : 16 бит
Метод сжатия : С потерями
Размер потока : 139 Мбайт (9%)
Выравнивание : Разделение по промежуткам
Продолжительность промежутка : 40 мс. (1,00 видеокадр)
Время предзагрузки промежутка : 500 ms
Аудио #2
Идентификатор : 2
Формат : AC-3
Формат/Информация : Audio Coding 3
Расширение режима : CM (complete main)
Идентификатор кодека : 2000
Продолжительность : 1 ч. 40 м.
Вид битрейта : Постоянный
Битрейт : 192 Кбит/сек
Канал(ы) : 2 канала(ов)
Расположение каналов : Front: L R
Частота : 48,0 КГц
Битовая глубина : 16 бит
Метод сжатия : С потерями
Размер потока : 139 Мбайт (9%)
Выравнивание : Разделение по промежуткам
Продолжительность промежутка : 40 мс. (1,00 видеокадр)
Время предзагрузки промежутка : 500 ms

Скриншоты

Релиз от: Leon-masl
[Профиль] [ЛС]
Кто просматривает тему:

Форум Тема Автор Размер
Russian music (other genres) Сборник - Прощай, Гравитация! Русские новинки (2015) MP3 BOSS 847 MB
Показать сообщения:    

Текущее время: Сегодня 22:45

Часовой пояс: GMT



Вы не можете начинать темы
Вы не можете отвечать на сообщения
Вы не можете редактировать свои сообщения
Вы не можете удалять свои сообщения
Вы не можете голосовать в опросах
Вы не можете прикреплять файлы к сообщениям
Вы не можете скачивать файлы