Прощай, речь 3D / Adieu au langage / Goodbye to Language (Жан-Люк Годар / Jean-Luc Godard) [2014 г., Франция, драма, BDRip-AVC] Half SideBySide / Горизонтальная анаморфная стереопара

 
Автор Сообщение

TorrentFilm ®

Пол:

Стаж: 2 года

Сообщений: 7741



Награды: Нет

Торрент-статистика

Создавать темы 31-Янв-2015 00:00

[Цитировать]

Прощай, речь 3D / Adieu au langage / Goodbye to Language- Год выпуска: 2014
Страна: Франция
Жанр: драма
Продолжительность: 01:09:18
Перевод: Профессиональный (многоголосый закадровый) CP Дистрибуция
Оригинальная аудиодорожка: Французская
Cубтитры: Русские (R5), английские, французские-Режиссер: Жан-Люк Годар / Jean-Luc Godard
В ролях: Элоиз Годе, Камель Абдели, Ришар Шевалье, Зои Брунэо, Кристиан Григорий, пёс Рокси, Джессика Эриксон, Мари Ручат, Джереми Дзампатти, Дэниэл Людвиг, Джино Сиконолфи-Описание:
Он и она — два мира, утративших связь друг с другом. Их единственный проводник — собака. Без слов животное транслирует любовь в оба конца, и эта слабая связь неожиданно крепнет. Но хватит ли ее, чтобы разжечь былые чувства?-За дорожку спасибо amazon.
| IMDb | Сэмпл-Качество: BDRip (HDAccess)
Контейнер: MKV
Формат 3D: Half SideBySide / Горизонтальная анаморфная стереопара
Порядок ракурсов: левый ракурс первый
Видео: x264, 1920x1080 (1.78:1), 23.976 fps, 17.8 Mbps
Аудио 1: Русский AC3 5.1, 48 kHz, 384 kbps
Аудио 2: Французский DTS 5.1, 48 kHz, 1509 kbps, 24-bit
Формат субтитров: softsub (SRT)

Скриншоты

Source vs Encode



MInfo

RELEASE NAME...: Goodbye.to.Language.2014.1080p.3D.BluRay.Half-SBS.DTS.x264-HDAccess
RELEASE SIZE...: 9.59 GB
RUNTIME........: 1h 09mn 14s
VIDEO CODEC....: x264, CRF, High@L4.1
FRAMERATE......: 23.976 fps
BITRATE........: 17.8 Mbps
RESOLUTION.....: 1920 x 1080
AUDIO..........: French DTS 6ch @ 1510 Kbps
CHAPTERS.......: Included
SOURCE.........: 1080p 3D GBR Blu-ray AVC DTS-HD MA 5.1-ESiR
SUBTITLES......: English 2D/3D
RELEASE DATE...: 17/12/2014
ENCODER........: Kwabs
x264 INFO
x264 info: frame I:543 Avg QP:15.30 size:276946
x264 info: frame P:22005 Avg QP:17.81 size:148412
x264 info: frame B:77123 Avg QP:18.46 size: 78145
x264 info: consecutive B-frames: 2.8% 2.0% 6.2% 26.9% 14.9% 28.6% 5.6% 6.8% 3.8% 2.3%
General
Unique ID : 250054499784867743745006674742103478830 (0xBC1EBEB0E0C7D3C481D9CD65476F922E)
Complete name : Goodbye.to.Language.2014.1080p.3D.BluRay.Half-SBS.x264-HDAccess.mkv
Format : Matroska
Format version : Version 3 / Version 2
File size : 9.73 GiB
Duration : 1h 9mn
Overall bit rate : 20.1 Mbps
Movie name : Adieu au langage / Прощай, речь 3D (2014) – RuTracker
Encoded date : UTC 2015-01-19 19:03:24
Writing application : mkvmerge v7.0.0 ('Where We Going') 64bit built on Jun 9 2014 15:16:27
Writing library : libebml v1.3.0 + libmatroska v1.4.1
Attachements : cover.jpg
Video
ID : 1
Format : AVC
Format/Info : Advanced Video Codec
Format profile : High@L4.1
MultiView_Count : 2
MultiView_Layout : Side by Side (left eye first)
Format settings, CABAC : Yes
Format settings, ReFrames : 4 frames
Codec ID : V_MPEG4/ISO/AVC
Duration : 1h 9mn
Bit rate : 17.8 Mbps
Width : 1 920 pixels
Height : 1 080 pixels
Display aspect ratio : 16:9
Frame rate mode : Constant
Frame rate : 23.976 fps
Color space : YUV
Chroma subsampling : 4:2:0
Bit depth : 8 bits
Scan type : Progressive
Bits/(Pixel*Frame) : 0.358
Stream size : 8.62 GiB (89%)
Title : Goodbye.to.Language.2014.1080p.3D.BluRay.Half-SBS.DTS.x264-HDAccess
Writing library : x264 core 133 r2334kMod a3ac64b
Encoding settings : cabac=1 / ref=4 / deblock=1:-3:-3 / analyse=0x3:0x133 / me=umh / subme=10 / psy=1 / fade_compensate=0.00 / psy_rd=1.00:0.00 / mixed_ref=1 / me_range=24 / chroma_me=1 / trellis=2 / 8x8dct=1 / cqm=0 / deadzone=21,11 / fast_pskip=0 / chroma_qp_offset=-2 / threads=24 / lookahead_threads=4 / sliced_threads=0 / nr=0 / decimate=0 / interlaced=0 / bluray_compat=0 / constrained_intra=0 / bframes=9 / b_pyramid=2 / b_adapt=2 / b_bias=0 / direct=3 / weightb=1 / open_gop=0 / weightp=2 / keyint=250 / keyint_min=23 / scenecut=40 / intra_refresh=0 / rc=crf / mbtree=0 / crf=17.5000 / qcomp=0.65 / qpmin=0 / qpmax=69 / qpstep=4 / frame-packing=3 / ip_ratio=1.40 / pb_ratio=1.20 / aq=3:0.85
Language : French
Default : Yes
Forced : No
Audio #1
ID : 2
Format : AC-3
Format/Info : Audio Coding 3
Mode extension : CM (complete main)
Format settings, Endianness : Big
Codec ID : A_AC3
Duration : 1h 9mn
Bit rate mode : Constant
Bit rate : 384 Kbps
Channel(s) : 6 channels
Channel positions : Front: L C R, Side: L R, LFE
Sampling rate : 48.0 KHz
Bit depth : 16 bits
Compression mode : Lossy
Stream size : 190 MiB (2%)
Title : MVO – CP Дистрибуция
Language : Russian
Default : Yes
Forced : No
Audio #2
ID : 3
Format : DTS
Format/Info : Digital Theater Systems
Mode : 16
Format settings, Endianness : Big
Codec ID : A_DTS
Duration : 1h 9mn
Bit rate mode : Constant
Bit rate : 1 509 Kbps
Channel(s) : 6 channels
Channel positions : Front: L C R, Side: L R, LFE
Sampling rate : 48.0 KHz
Bit depth : 24 bits
Compression mode : Lossy
Stream size : 748 MiB (8%)
Title : Original
Language : French
Default : No
Forced : No
Text #1
ID : 4
Format : UTF-8
Codec ID : S_TEXT/UTF8
Codec ID/Info : UTF-8 Plain Text
Title : R5
Language : Russian
Default : No
Forced : No
Text #2
ID : 5
Format : UTF-8
Codec ID : S_TEXT/UTF8
Codec ID/Info : UTF-8 Plain Text
Title : StudioCanal
Language : English
Default : No
Forced : No
Text #3
ID : 6
Format : UTF-8
Codec ID : S_TEXT/UTF8
Codec ID/Info : UTF-8 Plain Text
Title : SDH
Language : French
Default : No
Forced : No
Text #4
ID : 7
Format : PGS
Codec ID : S_HDMV/PGS
Codec ID/Info : The same subtitle format used on BDs/HD-DVDs
Language : English
Default : No
Forced : No
Text #5
ID : 8
Format : PGS
Codec ID : S_HDMV/PGS
Codec ID/Info : The same subtitle format used on BDs/HD-DVDs
Title : PSDH
Language : French
Default : No
Forced : No
Menu
00:00:00.000 : en:Chapter 01
00:06:47.990 : en:Chapter 02
00:11:33.192 : en:Chapter 03
00:15:53.577 : en:Chapter 04
00:22:50.118 : en:Chapter 05
00:29:39.736 : en:Chapter 06
00:35:40.763 : en:Chapter 07
00:40:02.358 : en:Chapter 08
00:46:19.318 : en:Chapter 09
00:52:17.634 : en:Chapter 10
00:59:18.513 : en:Chapter 11
01:04:28.573 : en:Chapter 12
[Профиль] [ЛС]
Кто просматривает тему:

Форум Тема Автор Размер
Фильмы (DVD 5/9) Долгое прощание (Сергей Урсуляк) [2004, Россия, драма, мелодрама, экранизация, DVD9] TorrentFilm 5.53 GB
Документальные HD Елена Образцова. Прощай, королева! [2015, Документальный, HDTV 1080i] TorrentFilm 3.88 GB
Документальные HD Настоящая Кровь. Прощальное Шоу / True Blood. A Farewell To Bon Temps (Крис Деннистон / Chris Denniston) [2015, Документальный, HDTV 720p] DVO (NOVAMEDiA) TorrentFilm 865 MB
Фильмы (HD Rips | 720p, 1080p) Прощай, Бафана / Goodbye Bafana (2007) BDRip 1080p | P Russian Mafia 9.85 GB
Фильмы 2011 года Прощай, Бафана / Goodbye Bafana (Билле Аугуст / Bille August) [2007, Германия, Франция, Великобритания, Италия, ЮАР, Бельгия, Люксембург, драма, биография, исторический, DVDRip] MVO + Sub Rus +... TorrentFilm 2.18 GB
Фильмы (HD DVD, Blu-ray и BDRemux) Прощай, речь / Adieu au langage (2014) DVD5 от New-Team | P | Лицензия sergej644 3.93 GB
Классика зарубежного кино Прощай, Сабата / Indio Black, sai che ti dico: Sei un gran figlio di... (1970) HDTVRip от Leon-masl | P, A Russian Mafia 1.45 GB
Фильмы (HD Rips | 720p, 1080p) Прощальная вечеринка / House Party: Tonight’s the Night (2013) HDTVRip 720p | P sergej644 2.21 GB
Показать сообщения:    

Текущее время: Сегодня 12:51

Часовой пояс: GMT



Вы не можете начинать темы
Вы не можете отвечать на сообщения
Вы не можете редактировать свои сообщения
Вы не можете удалять свои сообщения
Вы не можете голосовать в опросах
Вы не можете прикреплять файлы к сообщениям
Вы не можете скачивать файлы