Прощай, Бафана / Goodbye Bafana (Билле Аугуст / Bille August) [2007, Германия, Франция, Великобритания, Италия, ЮАР, Бельгия, Люксембург, драма, биография, исторический, DVDRip] MVO + Sub Rus + Original Eng

 
Автор Сообщение

TorrentFilm ®

Пол:

Стаж: 2 года

Сообщений: 7741



Награды: Нет

Торрент-статистика

Создавать темы 14-Авг-2015 00:09

[Цитировать]

Прощай, Бафана / Goodbye Bafana
Страна: Германия, Франция, Великобритания, Италия, ЮАР, Бельгия, Люксембург
Жанр: драма, биография, исторический
Год выпуска: 2007
Продолжительность: 01:53:08
Перевод: Профессиональный (многоголосый закадровый)
Cубтитры: русские
Оригинальная аудиодорожка: английский

Режиссер: Билле Аугуст / Bille August
В ролях: Джозеф Файнc, Деннис Хейсбёрт, Дайан Крюгер, Патрик Листер, Шило Хендерсон, Тайрон Кеог, Меган Смит, Джессика Мануэль, Фейт Ндуквана, Терри Фето
Описание: В основу ленты положена книга Джеймса Грегори и Боба Грэма, повествующая о белом южноафриканском расисте, в течение 20 лет охранявшем прославленного политзаключенного Нельсона Манделу, который в итоге коренным образом изменил его жизнь. Один из авторов книги Джеймс Грегори вырос на ферме в Транскее и с детства прекрасно говорил на африканском языке коса. Став тюремщиком, он пользовался этими знаниями, шпионя за Манделой и другими темнокожими заключенными, которые и не подозревали, что он понимает их речь.
Качество видео: DVDRip
Формат видео: AVI
Видео: 704x400 (1.76:1), 25 fps, XviD build 73 ~1842 kbps avg, 0.26 bit/pixel
Аудио: 48 kHz, AC3 Dolby Digital, 3/2 (L,C,R,l,r) + LFE ch, ~448 kbps - многоголосый
Аудио: 48 kHz, AC3 Dolby Digital, 3/2 (L,C,R,l,r) + LFE ch, ~448 kbps - оригинал

MediaInfo

Общее
Полное имя : H:\Goodbye.Bafana.2007.dvdrip_[2.18]_[teko]\Goodbye.Bafana.2007.dvdrip_[2.18].avi
Формат : AVI
Формат/Информация : Audio Video Interleave
Профиль формата : OpenDML
Размер файла : 2,18 Гбайт
Продолжительность : 1 ч. 53 м.
Общий поток : 2757 Кбит/сек
Программа кодирования : VirtualDubMod 1.5.10.3 | www.virtualdub-fr.org || (build 2550/release)
Библиотека кодирования : VirtualDubMod build 2550/release
Видео
Идентификатор : 0
Формат : MPEG-4 Visual
Профиль формата : Advanced Simple@L5
Параметр BVOP формата : 1
Параметр QPel формата : Нет
Параметр GMC формата : Без точки перехода
Параметр матрицы формата : Выборочная
Идентификатор кодека : XVID
Идентификатор кодека/Подсказка : XviD
Продолжительность : 1 ч. 53 м.
Битрейт : 1843 Кбит/сек
Ширина : 704 пикселя
Высота : 400 пикселей
Соотношение сторон : 16:9
Частота кадров : 25,000 кадров/сек
Цветовое пространство : YUV
Субдискретизация насыщенности : 4:2:0
Битовая глубина : 8 бит
Тип развёртки : Прогрессивная
Метод сжатия : С потерями
Бит/(Пиксели*Кадры) : 0.262
Размер потока : 1,46 Гбайт (67%)
Библиотека кодирования : XviD 73
Аудио #1
Идентификатор : 1
Формат : AC-3
Формат/Информация : Audio Coding 3
Расширение режима : CM (complete main)
Параметр Endianness формата : Big
Идентификатор кодека : 2000
Продолжительность : 1 ч. 53 м.
Вид битрейта : Постоянный
Битрейт : 448 Кбит/сек
Каналы : 6 каналов
Расположение каналов : Front: L C R, Side: L R, LFE
Частота : 48,0 КГц
Битовая глубина : 16 бит
Метод сжатия : С потерями
Размер потока : 363 Мбайт (16%)
Выравнивание : Разделение по промежуткам
Продолжительность промежутка : 40 мс. (1,00 видеокадр)
Время предзагрузки промежутка : 500 мс.
Аудио #2
Идентификатор : 2
Формат : AC-3
Формат/Информация : Audio Coding 3
Расширение режима : CM (complete main)
Параметр Endianness формата : Big
Идентификатор кодека : 2000
Продолжительность : 1 ч. 53 м.
Вид битрейта : Постоянный
Битрейт : 448 Кбит/сек
Каналы : 6 каналов
Расположение каналов : Front: L C R, Side: L R, LFE
Частота : 48,0 КГц
Битовая глубина : 16 бит
Метод сжатия : С потерями
Размер потока : 363 Мбайт (16%)
Выравнивание : Разделение по промежуткам
Продолжительность промежутка : 40 мс. (1,00 видеокадр)
Время предзагрузки промежутка : 500 мс.
Релиз группы:
--
[Профиль] [ЛС]
Кто просматривает тему:

Форум Тема Автор Размер
Фильмы (DVD 5/9) Долгое прощание (Сергей Урсуляк) [2004, Россия, драма, мелодрама, экранизация, DVD9] TorrentFilm 5.53 GB
Документальные HD Елена Образцова. Прощай, королева! [2015, Документальный, HDTV 1080i] TorrentFilm 3.88 GB
Документальные HD Настоящая Кровь. Прощальное Шоу / True Blood. A Farewell To Bon Temps (Крис Деннистон / Chris Denniston) [2015, Документальный, HDTV 720p] DVO (NOVAMEDiA) TorrentFilm 865 MB
Фильмы (HD Rips | 720p, 1080p) Прощай, Бафана / Goodbye Bafana (2007) BDRip 1080p | P Russian Mafia 9.85 GB
Фильмы (HD DVD, Blu-ray и BDRemux) Прощай, речь / Adieu au langage (2014) DVD5 от New-Team | P | Лицензия sergej644 3.93 GB
Зарубежные Прощай, речь 3D / Adieu au langage / Goodbye to Language (Жан-Люк Годар / Jean-Luc Godard) [2014 г., Франция, драма, BDRip-AVC] Half SideBySide / Горизонтальная анаморфная стереопара TorrentFilm 9.73 GB
Классика зарубежного кино Прощай, Сабата / Indio Black, sai che ti dico: Sei un gran figlio di... (1970) HDTVRip от Leon-masl | P, A Russian Mafia 1.45 GB
Фильмы (HD Rips | 720p, 1080p) Прощальная вечеринка / House Party: Tonight’s the Night (2013) HDTVRip 720p | P sergej644 2.21 GB
Показать сообщения:    

Текущее время: Сегодня 06:11

Часовой пояс: GMT



Вы не можете начинать темы
Вы не можете отвечать на сообщения
Вы не можете редактировать свои сообщения
Вы не можете удалять свои сообщения
Вы не можете голосовать в опросах
Вы не можете прикреплять файлы к сообщениям
Вы не можете скачивать файлы