Прошу слова (Глеб Панфилов) [1975, СССР, Драма, DVD9] + Sub Fre + Original Rus / Potemkine Films

 
Автор Сообщение

TorrentFilm ®

Пол:

Стаж: 2 года

Сообщений: 7741



Награды: Нет

Торрент-статистика

Создавать темы 09-Июл-2015 00:02

[Цитировать]

Прошу слова / Potemkine Films
Страна:СССР
Студия:Ленфильм.
Жанр:Драма
Год выпуска:1975
Продолжительность:01:15:07+01:02:01
Производитель:Potemkine FilmsПеревод:Не требуетсяCубтитры:Французские
Оригинальная аудиодорожка:Русский
Премьера (мир):29.11.1976
Режиссер:Глеб ПанфиловВ ролях:Инна Чурикова — Елизавета Андреевна Уварова, председатель горсовета
Николай Губенко — Сергей Уваров, муж Елизаветы Андреевны
Виталий Жабовский — Юра, сын Уваровых
Катя Волкова — Лена, дочь Уваровых
Леонид Броневой — Пётр Васильевич Алтухов, бывший председатель горисполкома
Дмитрий Бессонов — Спартак Иванович, помощник Уваровой
Валентина Ковель — Татьяна, секретарь Уваровой
А. Самсонов — Веня, шофёр
Вадим Медведев — Владимир Викентьевич, главный архитектор города
Л. Большов — заместитель главного архитектора
Николай Сергеев — Степан Трофимович Бушуев, старый большевик
Александра Охитина — Бушуева, жена Степана Трофимовича
Владимир Казаринов — Гриша, старый большевик
Константин Тягунов — Иван, старый большевик
Василий Шукшин — Фёдор, местный драматург (озвучивает Игорь Ефимов)
Владимир Ляхов — Данилов, начальник СМУ
Николай Пеньков — Волков, начальник ЖЭКа
Т. Садовская — девушка из Геотреста
Н. Еремеева — Зина
Эрнст Романов — доцент Козлов
Сергей Жукович — Фёдор, внук Ивана
А. Чхеидзе — жених Жора
Т. Непреенкова — невеста Оля
А. Рыжова — мать невесты
Витя Марейчев — подросток
Андрей Григорьев — Пронька
Александр Суснин — прораб
Баадур Цуладзе — гость на свадьбе
Юрий Шепелев — дядя
Марина Юрасова — гостья на свадьбе
Описание:Сильная, всегда убежденная в своей правоте Елизавета Уварова становится председателем горисполкома старинного города Златограда. Героиня пламенно любит проект будущего моста, который соединит старую и промышленную части древнего города…
Доп. информация:Исходник найден в сети.
Сценарий:Глеб Панфилов
Оператор:Александр Антипенко
Композитор:Вадим Биберган
Художник:Марксэн Гаухман-Свердлов
Панфилов, Глеб Анатольевич-https://ru.wikipedia.org/wiki/Панфилов,_Глеб_Анатольевич Фильм-https://ru.wikipedia.org/wiki/%CF%F0%EE%F8%F3_%F1%EB%EE%E2%E0Знаете ли вы, что...">

Это интересноПанфилов, Глеб Анатольевич-https://ru.wikipedia.org/wiki/Панфилов,_Глеб_Анатольевич Фильм-https://ru.wikipedia.org/wiki/%CF%F0%EE%F8%F3_%F1%EB%EE%E2%E0Знаете ли вы, что...


Награды и номинации

Рецензия

Бонусы:(Без перевода)

Меню:Французский, анимированное , озвученное.Сэмпл :http://multi-up.com/1024127
Тип релиза:DVD9
Контейнер:DVD-Video
Видео:PAL 4:3 (720x576) VBR, 5816 Кбит/сек, 25,000 кадров/сек
Аудио :Русский:AC3, 2 ch, 48.0 KHz, 256 Кбит/сек
Формат субтитров:prerendered (DVD/IDX+SUB)

Dvd Info

Title: Прошу слова
Size: 6.82 Gb ( 7 155 410,00 KBytes ) - DVD-9
Enabled regions: 1, 2, 3, 4, 5, 6, 7, 8
VTS_01 :
Play Length: 00:00:28
Video: PAL 16:9 (720x576) VBR, Auto Letterboxed
Audio:
Not specified, AC3, 2/0 (L,R) ch, 256 kbps, Delay 0 mSec
VTS_02 :
Play Length: 01:15:07
Video: PAL 4:3 (720x576) VBR
Audio:
Russian, AC3, 2/0 (L,R) ch, 256 kbps, Delay 0 mSec
Subtitles:
Francais
VTS_03 :
Play Length: 00:12:12
Video: PAL 16:9 (720x576) VBR, Auto Letterboxed
Audio:
Francais, AC3, 2/0 (L,R) ch, 256 kbps, Delay 0 mSec
VTS_04 :
Play Length: 01:02:01
Video: PAL 4:3 (720x576) VBR
Audio:
Russian, AC3, 2/0 (L,R) ch, 256 kbps, Delay 0 mSec
Subtitles:
Francais

MediaInfo

Общее
Полное имя: F:\Прошу слова\VIDEO_TS\VTS_02_2.VOB
Формат : MPEG-PS
Размер файла : 1024 Мбайт
Продолжительность : 23 м.
Режим общего битрейта : Переменный
Общий поток : 6195 Кбит/сек
Видео
Идентификатор : 224 (0xE0)
Формат : MPEG Video
Версия формата : Version 2
Профиль формата : Main@Main
Параметр BVOP формата : Да
Параметр матрицы формата : Выборочная
Параметр GOP формата : M=3, N=12
Продолжительность : 23 м.
Вид битрейта : Переменный
Битрейт : 5816 Кбит/сек
Максимальный битрейт : 7000 Кбит/сек
Ширина : 720 пикселей
Высота : 576 пикселей
Соотношение сторон : 4:3
Частота кадров : 25,000 кадров/сек
Стандарт вещания : PAL
Цветовое пространство : YUV
Субдискретизация насыщенности : 4:2:0
Битовая глубина : 8 бит
Тип развёртки : Чересстрочная
Порядок развёртки : Верхнее поле первое
Метод сжатия : С потерями
Бит/(Пиксели*Кадры) : 0.561
Временной код первого кадра : 01:23:46:11
Оригинал временного кода : Group of pictures header
Размер потока : 961 Мбайт (94%)
Аудио
Идентификатор : 189 (0xBD)-128 (0x80)
Формат : AC-3
Формат/Информация : Audio Coding 3
Расширение режима : CM (complete main)
Параметр Endianness формата : Big
Режим смешивания : DVD-Video
Продолжительность : 23 м.
Вид битрейта : Постоянный
Битрейт : 256 Кбит/сек
Каналы : 2 канала
Расположение каналов : Front: L R
Частота : 48,0 КГц
Битовая глубина : 16 бит
Метод сжатия : С потерями
Задержка видео : -552 мс.
Размер потока : 42,3 Мбайт (4%)
Текст
Идентификатор : 189 (0xBD)-32 (0x20)
Формат : RLE
Формат/Информация : Run-length encoding
Режим смешивания : DVD-Video
Продолжительность : 22 м.
Задержка видео : 4 с. 680 мс.

Скриншоты меню

Скриншоты

Скриншоты доп. материалов

[Профиль] [ЛС]

Создавать темы 06-Авг-2015 23:37 (спустя 28 дней)

Топик был перенесен из форума Фильмы (HD DVD, Blu-ray и BDRemux) в форум Фильмы (DVD 5/9)
sergej644
 
Показать сообщения:    

Текущее время: Сегодня 00:36

Часовой пояс: GMT



Вы не можете начинать темы
Вы не можете отвечать на сообщения
Вы не можете редактировать свои сообщения
Вы не можете удалять свои сообщения
Вы не можете голосовать в опросах
Вы не можете прикреплять файлы к сообщениям
Вы не можете скачивать файлы