Прошлым летом в Чулимске (Виктор Демент) [2014, Россия, Мелодрама, HDTV 1080i] + Original Rus

 
Автор Сообщение

reversefile ®

Пол:

Стаж: 4 года 5 месяцев

Сообщений: 842

Откуда: ReverseFile.org



Награды: Нет

Торрент-статистика

Создавать темы 13-Авг-2014 18:27

[Цитировать]

Прошлым летом в Чулимске
Страна: Россия
Студия: Кинокомпания "Талан"
Жанр: Мелодрама
Год выпуска: 2014
Продолжительность: 01:26:01
Перевод: Не требуется
Cубтитры: нет
Оригинальная аудиодорожка: русский
Режиссер: Виктор Демент
В ролях: Сергей Безруков, Мария Поезжаева, Анна Невская, Маргарита Шубина, Александр Самойленко
Описание: Жизнь небольшого таежного городка Чулимска вращается вокруг маленького буфета в котором работает молодая девушка Валентина. Валентина влюблена в следователя Шаманова, закрытого, строгого, но обаятельного мужчину, который недавно приехал в Чулимск. Несмотря на любовные отношения Шаманова с аптекаршей Зиной и его зрелый возраст, Валентина находит в себе мужество признаться Шаманову в любви. До этого момента никогда не замечавший красоту и уникальность Валентины, Шаманов вдруг осознаёт, что эта милая, скромная девушка и есть его счастье…
Сэмпл: http://multi-up.com/968215
Тип релиза: HDTV 1080i
Контейнер: TS
Видео: MPEG-4 AVC; 1920x1080; 7158 Kbps; 25 fps
Аудио: MPEG Audio, 2 ch, 48 kHz, 224 kbps

MediaInfo

General
ID : 1 (0x1)
Complete name : Proshlym.letom.v.Chulimske.2013.HDTV.1080i.ts
Format : MPEG-TS
File size : 4.67 GiB
Duration : 1h 26mn
Overall bit rate mode : Variable
Overall bit rate : 7 768 Kbps
Video
ID : 1901 (0x76D)
Menu ID : 1 (0x1)
Format : AVC
Format/Info : Advanced Video Codec
Format profile : High@L4.0
Format settings, CABAC : Yes
Format settings, ReFrames : 3 frames
Codec ID : 27
Duration : 1h 26mn
Bit rate : 7 158 Kbps
Width : 1 920 pixels
Height : 1 080 pixels
Display aspect ratio : 16:9
Frame rate : 25.000 fps
Standard : Component
Color space : YUV
Chroma subsampling : 4:2:0
Bit depth : 8 bits
Scan type : Interlaced
Scan order : Top Field First
Bits/(Pixel*Frame) : 0.138
Stream size : 4.30 GiB (92%)
Color primaries : BT.709
Transfer characteristics : BT.709
Matrix coefficients : BT.709
Audio
ID : 2901 (0xB55)
Menu ID : 1 (0x1)
Format : MPEG Audio
Format version : Version 1
Format profile : Layer 2
Codec ID : 3
Duration : 1h 26mn
Bit rate mode : Constant
Bit rate : 224 Kbps
Channel(s) : 2 channels
Sampling rate : 48.0 KHz
Compression mode : Lossy
Stream size : 138 MiB (3%)
Language : Russian

Скриншоты


[Профиль] [ЛС]
Кто просматривает тему:

Форум Тема Автор Размер
Rock, Metal (Rock, Glam Rock) Рондо - Прошлое...Живое (2CD) - 1998 [MP3, tracks, 320 kbps] sergej644 362 MB
Discovery Discovery: Прошлое. Истоки настоящего / How We Got Here [сезон 1 серии 1-12 из 12] (Peter Karr) [2015 г., Доеументальный, постановочный, история техники, изобретений, SATRip] skorpionN 3.68 GB
S.T.A.L.K.E.R. S.T.A.L.K.E.R.: Call of Pripyat - Призраки прошлого v1.6.02 (2015/RUS/RePack by SeregA-Lus) (2015) (SoR — TeaM) (ENG+RUS) [RePack] Richi Keeper 2.86 GB
Приключения, Квесты, Логические Бессмертная любовь: Письмо из прошлого / Immortal Love: Letter From The Past CE (2015) РС достали все 1.01 GB
Отечественные cериалы Взгляд из прошлого [01-04 из 04] (2015) SATRip достали все 2.41 GB
Фильмы (HD Rips | 720p, 1080p) Взрыв из прошлого / Blast from the Past (1999) BDRip 1080p | D,P,A | Полная версия Russian Mafia 11.48 GB
Фильмы (HD Rips | 720p, 1080p) Взрыв из прошлого / Blast from the Past (1999) BDRip 720p by msltel | Полная версия Russian Mafia 3.83 GB
Фильмы 2011 года Взрыв из прошлого / Blast from the Past (1999) BDRip | Полная версия Russian Mafia 2.18 GB
Показать сообщения:    

Текущее время: Сегодня 00:21

Часовой пояс: GMT



Вы не можете начинать темы
Вы не можете отвечать на сообщения
Вы не можете редактировать свои сообщения
Вы не можете удалять свои сообщения
Вы не можете голосовать в опросах
Вы не можете прикреплять файлы к сообщениям
Вы не можете скачивать файлы