Прошлое умеет ждать [01-04 из 04] (2015) SATRip

 
Автор Сообщение

BOSS ®

Пол:

Стаж: 2 года 1 месяц

Сообщений: 3746

Откуда: ODESSA



Награды: 20 (Подробнее)

Mega Seeder 1 (Количество: 1) Mega Releaser 1 (Количество: 1) Top Keeper 2 (Количество: 1)
Торрент-статистика

Создавать темы 25-Окт-2015 14:40

[Цитировать]

Информация о фильме
Название: Прошлое умеет ждать
Год выхода: 2015
Жанр: Детектив
Режиссер: Игорь Нурисламов
В ролях: Татьяна Арнтгольц, Сергей Перегудов, Светлана Смирнова-Кацагаджиева, Сергей Марин, Елена Мартыненко, Денис Пьянов, Мария Капустинская, Андрей Дидик, Вадим Сквирский, Филипп Дьячков
О фильме:
Двоюродные братья и сёстры, не видевшиеся двадцать лет, съезжаются в дом покойной бабушки на оглашение завещания. Светлые детские воспоминания, которым предаются родственники в ожидании нотариуса, омрачают загадочные «сюрпризы» из прошлого. Неизвестный пытается оживить в памяти собравшихся жуткое событие двадцатилетней давности - тогда была убита их кузина Аста. Убийцу не нашли.
«Сюрпризы» сменяет череда странных происшествий: на одну из сестёр нападают, другая исчезает. Родственники убеждены: кто-то из присутствующих хочет напугать конкурентов и вынудить уехать. Ведь наследство получит только тот, кто будет присутствовать в момент оглашения завещания - так распорядилась бабушка. Когда же происходит убийство, становится ясно - неизвестный играет по-крупному. А ключ к разгадке череды необъяснимых событий - мрачная тайна семьи…
Страна: Россия
Продолжительность: ~ 00:44:00
Перевод: Не требуется
Файл
Кодек: XviD
Качество: SATRip
Видео: 720x448 (1.61:1), 25 fps, XviD build 50 ~1800 kbps avg, 0.22 bit/pixel
Звук: 48 kHz, MPEG Layer 3, 2 ch, ~128.00 kbps avg

Скриншоты

MediaInfo

Общее
Полное имя : D:Proshloe.umeet.zhdat.SATRipProshloe.umeet.zhdat.01.SATRip.avi
Формат : AVI
Формат/Информация : Audio Video Interleave
Размер файла : 605 Мбайт
Продолжительность : 43 м.
Общий поток : 1938 Кбит/сек
Программа кодирования : VirtualDubMod 1.5.10.3 | www.virtualdub-fr.org || (build 2550/release)
Библиотека кодирования : VirtualDubMod build 2550/release
Видео
Идентификатор : 0
Формат : MPEG-4 Visual
Профиль формата : Advanced Simple@L5
Параметр BVOP формата : 2
Параметр QPel формата : Нет
Параметр GMC формата : Без точки перехода
Параметр матрицы формата : Default (MPEG)
Идентификатор кодека : XVID
Идентификатор кодека/Подсказка : XviD
Продолжительность : 43 м.
Битрейт : 1800 Кбит/сек
Ширина : 720 пикселей
Высота : 448 пикселей
Соотношение сторон : 16:10
Частота кадров : 25,000 кадров/сек
Цветовое пространство : YUV
Субдискретизация насыщенности : 4:2:0
Битовая глубина : 8 бит
Тип развёртки : Прогрессивная
Метод сжатия : С потерями
Бит/(Пиксели*Кадры) : 0.223
Размер потока : 562 Мбайт (93%)
Библиотека кодирования : XviD 1.2.1 (UTC 2008-12-04)
Аудио
Идентификатор : 1
Формат : MPEG Audio
Версия формата : Version 1
Профиль формата : Layer 3
Режим : Joint stereo
Расширение режима : MS Stereo
Идентификатор кодека : 55
Идентификатор кодека/Подсказка : MP3
Продолжительность : 43 м.
Вид битрейта : Постоянный
Битрейт : 128 Кбит/сек
Каналы : 2 канала
Частота : 48,0 КГц
Метод сжатия : С потерями
Размер потока : 40,0 Мбайт (7%)
Выравнивание : Соединение по промежуткам
Продолжительность промежутка : 40 мс. (1,00 видеокадр)
Время предзагрузки промежутка : 504 мс.
Библиотека кодирования : LAME3.99r
Настройки программы : -m j -V 4 -q 9 -lowpass 17 -b 128
[Профиль] [ЛС]
Кто просматривает тему:

Форум Тема Автор Размер
Rock, Metal (Rock, Glam Rock) Рондо - Прошлое...Живое (2CD) - 1998 [MP3, tracks, 320 kbps] sergej644 362 MB
Discovery Discovery: Прошлое. Истоки настоящего / How We Got Here [сезон 1 серии 1-12 из 12] (Peter Karr) [2015 г., Доеументальный, постановочный, история техники, изобретений, SATRip] skorpionN 3.68 GB
S.T.A.L.K.E.R. S.T.A.L.K.E.R.: Call of Pripyat - Призраки прошлого v1.6.02 (2015/RUS/RePack by SeregA-Lus) (2015) (SoR — TeaM) (ENG+RUS) [RePack] Richi Keeper 2.86 GB
Приключения, Квесты, Логические Бессмертная любовь: Письмо из прошлого / Immortal Love: Letter From The Past CE (2015) РС достали все 1.01 GB
Отечественные cериалы Взгляд из прошлого [01-04 из 04] (2015) SATRip достали все 2.41 GB
Фильмы (HD Rips | 720p, 1080p) Взрыв из прошлого / Blast from the Past (1999) BDRip 1080p | D,P,A | Полная версия Russian Mafia 11.48 GB
Фильмы (HD Rips | 720p, 1080p) Взрыв из прошлого / Blast from the Past (1999) BDRip 720p by msltel | Полная версия Russian Mafia 3.83 GB
Фильмы 2011 года Взрыв из прошлого / Blast from the Past (1999) BDRip | Полная версия Russian Mafia 2.18 GB
Показать сообщения:    

Текущее время: Сегодня 19:31

Часовой пояс: GMT



Вы не можете начинать темы
Вы не можете отвечать на сообщения
Вы не можете редактировать свои сообщения
Вы не можете удалять свои сообщения
Вы не можете голосовать в опросах
Вы не можете прикреплять файлы к сообщениям
Вы не можете скачивать файлы